Семейный уик-энд / Family Weekend (Бенжамин Еппс / Benjamin Epps) [2013, США, драма, комедия, WEB-DL 720p] VO + Original (Eng) + Sub (eng)

Ответить на тему
 
Автор Сообщение

user ®

Стаж: 7 лет 7 месяцев

Сообщений: 20008

Пост Пост: #1 от 29-Сен-2013 08:15

[Цитировать]

Семейный уик-энд : Family Weekend«If a family doesn't stick together, sometimes you have to use a little tape.» Страна: США
Год выпуска: 2013
Жанр: драма, комедия
Продолжительность: 01:45:31
Перевод: Одноголосый закадровый [Gentleman]
русские субтитры: нет-Режиссёр: Бенжамин Еппс : Benjamin Epps
В главных ролях: Кристин Ченоуэт, Мэттью Модайн, Олеся Рулин, Джои Кинг, Эдди Хэсселл, Ширли Джонс, Хлоя Бриджес, Адам Саундерс, Робби Такер, Питер Гэйл-Описание: Изначально о взаимопонимании и семейной гармонии в этом доме никто даже и не слышал. Еще бы, откуда же ей взяться в логове карьеристки, которая спит и думает только о собственной карьере и успехе и художника-романтика, который далек от житейских проблем и живет в мире творчества. Не смотря на такое различие в темпераментах и образах жизни эти двое умудрились на жить детей и много лет прожить вместе, почти не замечая друг друга и не занимаясь своими чадами. Пока дети были малы и несмышлены, родителям все сходило с рук. Брошенные и недолюбленные дети в прямом смысле слова были предоставлены сами себе. Теперь старшей дочери уже 16, она не ребенок и понимает, что это не нормальная семья, и все должно быть иначе. Она устала от того, что родители, живя под одной крышей каждый находятся в своем мире, но при этом их эгоизме страдают только дети, т.е. она и ее сестры-братья. Понимая, что нужны кардинальные меры, она берет младших в союзники и устраивает предкам настоящий уикенд с испытаниями, который должен образумить их и заставить задуматься о семье- -Качество: WEB-DL 720p
Формат: MKV
Видео кодек: AVC
Аудио кодек: АС3
Видео: 1280x544, 23.976 fps, ~4 160 kbps avg, 0.249 bit/pixel
Аудио #1: [RUS] 48 kHz, AC3 Dolby Digital, 3/2 (L,C,R,l,r) + LFE ch, ~384 kbps
Аудио #2: [ENG] 48 kHz, AC3 Dolby Digital, 3/2 (L,C,R,l,r) + LFE ch, ~384 kbps
субтитры: английские
навигация по главам: 12 глав

скриншоты

MediaInfo

Общее
Уникальный идентификатор : 187308607070797480761217453539147308943 (0x8CEA535545DCA183B41F6380ED4ADF8F)
Полное имя : D:\Im\Семейный уик-энд\Family Weekend.2013.WEB-DL 720p.mkv
Формат : Matroska
Версия формата : Version 4 / Version 2
Размер файла : 3,71 Гбайт
Продолжительность : 1 ч. 45 м.
Общий поток : 5028 Кбит/сек
Дата кодирования : UTC 2013-09-27 17:36:13
Программа кодирования : mkvmerge v6.4.1 ('Omega Point') built on Sep 16 2013 22:05:10
Библиотека кодирования : libebml v1.3.0 + libmatroska v1.4.1
Видео
Идентификатор : 1
Формат : AVC
Формат/Информация : Advanced Video Codec
Профиль формата : Main@L3.1
Параметр CABAC формата : Нет
Параметр ReFrames формата : 2 кадра
Идентификатор кодека : V_MPEG4/ISO/AVC
Продолжительность : 1 ч. 45 м.
Битрейт : 4160 Кбит/сек
Ширина : 1280 пикселей
Высота : 544 пикселя
Соотношение сторон : 2,35:1
Частота кадров : 23,976 кадра/сек
Цветовое пространство : YUV
Субдискретизация насыщенности : 4:2:0
Битовая глубина : 8 бит
Тип развёртки : Прогрессивная
Бит/(Пиксели*Кадры) : 0.249
Размер потока : 3,07 Гбайт (83%)
Язык : English
Default : Да
Forced : Нет
Основные цвета : BT.709-5, BT.1361, IEC 61966-2-4, SMPTE RP177
Характеристики трансфера : BT.709-5, BT.1361
Коэффициенты матрицы : BT.709-5, BT.1361, IEC 61966-2-4 709, SMPTE RP177
Аудио #1
Идентификатор : 2
Формат : AC-3
Формат/Информация : Audio Coding 3
Расширение режима : CM (complete main)
Идентификатор кодека : A_AC3
Продолжительность : 1 ч. 45 м.
Вид битрейта : Постоянный
Битрейт : 384 Кбит/сек
Каналы : 6 каналов
Расположение каналов : Front: L C R, Side: L R, LFE
Частота : 48,0 КГц
Битовая глубина : 16 бит
Метод сжатия : С потерями
Размер потока : 290 Мбайт (8%)
Заголовок : VO [Gentleman]
Язык : Russian
Default : Да
Forced : Нет
Аудио #2
Идентификатор : 3
Формат : AC-3
Формат/Информация : Audio Coding 3
Расширение режима : CM (complete main)
Идентификатор кодека : A_AC3
Продолжительность : 1 ч. 45 м.
Вид битрейта : Постоянный
Битрейт : 384 Кбит/сек
Каналы : 6 каналов
Расположение каналов : Front: L C R, Side: L R, LFE
Частота : 48,0 КГц
Битовая глубина : 16 бит
Метод сжатия : С потерями
Размер потока : 290 Мбайт (8%)
Заголовок : ENG
Язык : English
Default : Нет
Forced : Нет
Текст
Идентификатор : 4
Формат : UTF-8
Идентификатор кодека : S_TEXT/UTF8
Идентификатор кодека/Информация : UTF-8 Plain Text
Заголовок : Eng Sub
Язык : English
Default : Нет
Forced : Нет
Меню
00:00:00.000 : en:Jump Competition
00:07:44.000 : en:Where Were You?
00:14:59.000 : en:What About Condoms?
00:21:18.000 : en:Family Dinner
00:29:37.000 : en:The Plan
00:35:35.000 : en:Smith-Dungy Stats
00:45:28.000 : en:Unexpected Guest
00:58:05.000 : en:Speak The Truth
01:12:58.000 : en:Work Together
01:23:45.000 : en:Watch The DVD
01:33:09.000 : en:Queen Freak
01:41:16.000 : en:End Credits
Скачать

Скачать торрент!

Как скачивать? · Что такое торрент? · Рейтинг и ограничения

Сайт не распространяет и не хранит электронные версии произведений, а лишь предоставляет доступ к создаваемому пользователями каталогу ссылок на торрент-файлы, которые содержат только списки хеш-сумм

[Профиль] [ЛС]
Показать сообщения:    
Ответить на тему

Текущее время: Сегодня 18:06

Часовой пояс: GMT + 4



Вы не можете начинать темы
Вы не можете отвечать на сообщения
Вы не можете редактировать свои сообщения
Вы не можете удалять свои сообщения
Вы не можете голосовать в опросах
Вы не можете прикреплять файлы к сообщениям
Вы не можете скачивать файлы