Византия / Byzantium (Hил Джopдан / Nеil Jоrdan) [2012, Великобритания, Ирландия, США, драма, триллер, фэнтези, BDRip 720p] Dub + Original (Eng) + Sub (Rus, Eng)

Ответить на тему
 
Автор Сообщение

user ®

Стаж: 7 лет 7 месяцев

Сообщений: 20008

Пост Пост: #1 от 29-Сен-2013 08:15

[Цитировать]

Византия / Byzantium
Страна: Великобритания, Ирландия, США
Студия: Demarest Films, Lipsync Productions, Number 9 Films
Жанр: драма, триллер, фэнтези
Год выпуска: 2012
Продолжительность: 01:58:47
Перевод: профессиональный (дублированный)
Оригинальная аудиодорожка: английская
Cубтитры: русские, английские
Режиссер: Нил Джордан / Neil Jordan
В ролях: Джемма Артертон, Сирша Ронан, Джонни Ли Миллер, Калеб Лэндри Джонс, Сэм Райли, Том Холлендер, Туре Линдхардт, Дэниэл Мэйс, Уоррен Браун, Ури Гариэль, Гленн Дохерти
Описание: Клара и Элеонора поселились в маленьком английском городке, сразу же став объектом сплетен местных обитателей. И дело не только в заметных странностях этой пары. Сама Элеонора как-то проговорилась ровесникам, что ей уже 200 лет…

Релиз: fanatus
Качество видео: BDRip 720p
Исходник: Blu-ray Disc 1080p [BIZANTIUM_BLUEBIRD]
Контейнер: MKV
Видео: MPEG-4 AVC, 6 675 Kbps , 1280x544 (2.35:1), 23.976 fps, 0.400 bit/pixel
Аудио 1: русский (AC3, 6 ch, 48 kHz, 448 kbps)
Аудио 2: английский (DTS, 6 ch, 48 kHz, 755 kbps)
Формат субтитров: softsub (SRT)
Главы: есть

MediaInfo

General
Unique ID : 254231448963331440419156929071298981084 (0xBF43322F70144B25B571E87C2C612CDC)
Complete name : F:\Byzantium.2012.x264.BDRip.720p.fanatus.mkv
Format : Matroska
Format version : Version 2
File size : 6.54 GiB
Duration : 1h 58mn
Overall bit rate : 7 878 Kbps
Movie name : Byzantium (2012) - fanatus
Encoded date : UTC 2013-09-28 00:15:22
Writing application : mkvmerge v3.4.0 ('Rapunzel') сборка от May 15 2010 09:38:20
Writing library : libebml v0.8.0 + libmatroska v0.9.0
Video
ID : 1
Format : AVC
Format/Info : Advanced Video Codec
Format profile : High@L4.1
Format settings, CABAC : Yes
Format settings, ReFrames : 10 frames
Codec ID : V_MPEG4/ISO/AVC
Duration : 1h 58mn
Bit rate : 6 675 Kbps
Width : 1 280 pixels
Height : 544 pixels
Display aspect ratio : 2.35:1
Frame rate : 23.976 fps
Color space : YUV
Chroma subsampling : 4:2:0
Bit depth : 8 bits
Scan type : Progressive
Bits/(Pixel*Frame) : 0.400
Stream size : 5.41 GiB (83%)
Title : Byzantium (2012)
Writing library : x264 core 138 r2358kMod 9e941d1
Encoding settings : cabac=1 / ref=10 / deblock=1:-3:-2 / analyse=0x3:0x113 / me=umh / subme=11 / psy=1 / fade_compensate=0.00 / psy_rd=1.05:0.00 / mixed_ref=1 / me_range=48 / chroma_me=1 / trellis=2 / 8x8dct=1 / cqm=0 / deadzone=21,11 / fast_pskip=0 / chroma_qp_offset=-2 / threads=16 / lookahead_threads=4 / sliced_threads=0 / nr=0 / decimate=0 / interlaced=0 / bluray_compat=0 / constrained_intra=0 / bframes=13 / b_pyramid=2 / b_adapt=2 / b_bias=0 / direct=3 / weightb=1 / open_gop=0 / weightp=2 / keyint=240 / keyint_min=23 / scenecut=40 / intra_refresh=0 / rc_lookahead=240 / rc=2pass / mbtree=0 / bitrate=6675 / ratetol=1.0 / qcomp=0.65 / qpmin=0 / qpmax=69 / qpstep=4 / cplxblur=20.0 / qblur=0.5 / vbv_maxrate=50000 / vbv_bufsize=62500 / nal_hrd=none / ip_ratio=1.40 / pb_ratio=1.30 / aq=3:0.90
Language : English
Default : Yes
Forced : No
Audio #1
ID : 2
Format : AC-3
Format/Info : Audio Coding 3
Mode extension : CM (complete main)
Format settings, Endianness : Big
Codec ID : A_AC3
Duration : 1h 58mn
Bit rate mode : Constant
Bit rate : 448 Kbps
Channel(s) : 6 channels
Channel positions : Front: L C R, Side: L R, LFE
Sampling rate : 48.0 KHz
Bit depth : 16 bits
Compression mode : Lossy
Stream size : 381 MiB (6%)
Title : Dub
Language : Russian
Default : Yes
Forced : No
Audio #2
ID : 3
Format : DTS
Format/Info : Digital Theater Systems
Codec ID : A_DTS
Duration : 1h 58mn
Bit rate mode : Constant
Bit rate : 755 Kbps
Channel(s) : 6 channels
Channel positions : Front: L C R, Side: L R, LFE
Sampling rate : 48.0 KHz
Bit depth : 24 bits
Compression mode : Lossy
Stream size : 641 MiB (10%)
Title : Original
Language : English
Default : No
Forced : No
Text #1
ID : 4
Format : UTF-8
Codec ID : S_TEXT/UTF8
Codec ID/Info : UTF-8 Plain Text
Language : Russian
Default : No
Forced : No
Text #2
ID : 5
Format : UTF-8
Codec ID : S_TEXT/UTF8
Codec ID/Info : UTF-8 Plain Text
Language : English
Default : No
Forced : No
Menu
00:00:00.000 : en:00:00:00.000
00:06:56.958 : en:00:06:56.958
00:13:34.583 : en:00:13:34.583
00:20:25.208 : en:00:20:25.208
00:30:35.875 : en:00:30:35.875
00:36:26.458 : en:00:36:26.458
00:42:57.250 : en:00:42:57.250
00:50:03.917 : en:00:50:03.917
00:56:31.167 : en:00:56:31.167
01:04:07.833 : en:01:04:07.833
01:10:13.458 : en:01:10:13.458
01:20:51.542 : en:01:20:51.542
01:28:39.500 : en:01:28:39.500
01:35:44.750 : en:01:35:44.750
01:44:24.500 : en:01:44:24.500
01:53:34.333 : en:01:53:34.333

x264 [info]

x264 [info]: 1280x544p 1:1 @ 24000/1001 fps (cfr)
x264 [info]: using SAR=1/1
x264 [info]: using cpu capabilities: MMX2 SSE2Fast LZCNT
x264 [info]: profile High, level 4.1
x264 [info]: cabac=1 ref=10 deblock=1:-3:-2 analyse=0x3:0x113 me=umh subme=11 psy=1 fade_compensate=0.00 psy_rd=1.05:0.00 mixed_ref=1 me_range=48 chroma_me=1 trellis=2 8x8dct=1 cqm=0 deadzone=21,11 fast_pskip=0 chroma_qp_offset=-2 threads=16 lookahead_threads=4 sliced_threads=0 nr=0 decimate=0 interlaced=0 bluray_compat=0 constrained_intra=0 bframes=13 b_pyramid=2 b_adapt=2 b_bias=0 direct=3 weightb=1 open_gop=0 weightp=2 keyint=240 keyint_min=23 scenecut=40 intra_refresh=0 rc_lookahead=240 rc=2pass mbtree=0 bitrate=6675 ratetol=1.0 qcomp=0.65 qpmin=0 qpmax=69 qpstep=4 cplxblur=20.0 qblur=0.5 vbv_maxrate=50000 vbv_bufsize=62500 nal_hrd=none ip_ratio=1.40 pb_ratio=1.30 aq=3:0.90
x264 [info]: frame I:1075 Avg QP:12.90 size:129488
x264 [info]: frame P:35796 Avg QP:15.71 size: 62228
x264 [info]: frame B:134013 Avg QP:17.32 size: 26617
x264 [info]: consecutive B-frames: 2.5% 2.8% 6.6% 11.7% 15.8% 46.0% 7.0% 1.1% 1.7% 1.0% 0.8% 0.4% 1.3% 1.4%
x264 [info]: mb I I16..4: 8.9% 75.0% 16.1%
x264 [info]: mb P I16..4: 0.6% 24.7% 1.2% P16..4: 22.8% 30.4% 14.9% 0.0% 0.0% skip: 5.3%
x264 [info]: mb B I16..4: 0.1% 3.2% 0.1% B16..8: 34.6% 24.9% 8.1% direct: 9.2% skip:19.9% L0:46.0% L1:41.0% BI:13.0%
x264 [info]: 8x8 transform intra:92.0% inter:53.4%
x264 [info]: direct mvs spatial:98.1% temporal:1.9%
x264 [info]: coded y,uvDC,uvAC intra: 94.6% 87.1% 72.6% inter: 45.8% 37.6% 14.6%
x264 [info]: i16 v,h,dc,p: 41% 12% 11% 36%
x264 [info]: i8 v,h,dc,ddl,ddr,vr,hd,vl,hu: 9% 7% 16% 10% 12% 12% 11% 11% 12%
x264 [info]: i4 v,h,dc,ddl,ddr,vr,hd,vl,hu: 10% 8% 12% 8% 14% 13% 12% 11% 13%
x264 [info]: i8c dc,h,v,p: 49% 20% 17% 14%
x264 [info]: Weighted P-Frames: Y:3.8% UV:2.4%
x264 [info]: ref P L0: 40.7% 9.3% 18.8% 7.5% 6.7% 4.6% 4.6% 2.6% 2.6% 2.2% 0.4% 0.0%
x264 [info]: ref B L0: 65.2% 13.9% 7.4% 4.3% 3.1% 2.8% 2.2% 0.9% 0.3%
x264 [info]: ref B L1: 91.8% 8.2%
x264 [info]: kb/s:6660.34
x264 [info]: encoded 170884 frames, 6.40 fps, 6660.34 kb/s, duration 7:24:49.11

Скриншот c названием фильма

Скриншоты

Source vs Rip




Скачать

Скачать торрент!

Как скачивать? · Что такое торрент? · Рейтинг и ограничения

Сайт не распространяет и не хранит электронные версии произведений, а лишь предоставляет доступ к создаваемому пользователями каталогу ссылок на торрент-файлы, которые содержат только списки хеш-сумм

[Профиль] [ЛС]
Показать сообщения:    
Ответить на тему

Текущее время: Сегодня 06:28

Часовой пояс: GMT + 4



Вы не можете начинать темы
Вы не можете отвечать на сообщения
Вы не можете редактировать свои сообщения
Вы не можете удалять свои сообщения
Вы не можете голосовать в опросах
Вы не можете прикреплять файлы к сообщениям
Вы не можете скачивать файлы