Скуби-Ду и Школа Вампиров / Scooby-Doo and the Ghoul School (Чарльз А. Николс / Charles A. Nichols) [1988, Приключения, Комедия, DVB] Dub

Ответить на тему
 
Автор Сообщение

user ®

Стаж: 13 лет

Сообщений: 15041

Пост Пост: #1 от 29-Сен-2013 03:45

[Цитировать]

Скуби-Ду и Школа Вампиров / Scooby-Doo and the Ghoul School
Страна: США
Жанр: Приключения, Комедия
Продолжительность: 01:28:19
Год выпуска: 1988
Перевод: Профессиональный (дублированный) Cartoon Network
Русские субтитры: нет
Режиссёр: Чарльз А. Николс / Charles A. Nichols
Описание: Скуби-Ду и Шэгги придется признать, что есть вещи пострашнее домашнего задания! Двое друзей нанимаются на работу преподавателями в школу для вампиров Мисс Гримвуд. Здесь они узнают, что их ученицы — дочери самых страшных монстров в мире.
Релиз
[url=http://***/forum/tracker.php?f=209&nm=Scooby+Doo+and+the+Ghoul+School]Ссылка на предыдущие и альтернативные раздачи[/url]
Качество: DVB
Формат: mpg
Видео: MPEG2 Video 720x576 (4:3) 25fps 2 734 Kbps
Аудио: MPEG Audio 48000Hz stereo 192kbps
Субтитры: отсутствуют

Подробные технические данные

GeneralComplete name : C:\Users\Андрей\Desktop\Скуби-Ду и Школа Вампиров.mpgFormat : MPEG-PSFile size : 1.84 GiBDuration : 1h 28mnOverall bit rate mode : VariableOverall bit rate : 2 985 KbpsWriting library : (c) 1998-2010 Womble Multimedia, Inc. / MPEG Video Wizard DVD 5.0.0.114 (01/2010) / Mar 19 2011
VideoID : 224 (0xE0)Format : MPEG VideoFormat version : Version 2Format profile : Main@MainFormat settings, BVOP : YesFormat settings, Matrix : CustomFormat settings, GOP : M=3, N=12Duration : 1h 28mnBit rate mode : VariableBit rate : 2 734 KbpsMaximum bit rate : 5 000 KbpsWidth : 720 pixelsHeight : 576 pixelsDisplay aspect ratio : 4:3Active Format Description : ReservedFrame rate : 25.000 fpsStandard : PALColor space : YUVChroma subsampling : 4:2:0Bit depth : 8 bitsScan type : InterlacedScan order : Top Field FirstCompression mode : LossyBits/(Pixel*Frame) : 0.264Stream size : 1.69 GiB (92%)Writing library : (c) 1998-2010 Womble Multimedia, Inc. / MPEG Video Wizard DVD 5.0.0.114 (01/2010) / Mar 19 2011
AudioID : 192 (0xC0)Format : MPEG AudioFormat version : Version 1Format profile : Layer 2Duration : 1h 28mnBit rate mode : ConstantBit rate : 192 KbpsChannel(s) : 2 channelsSampling rate : 48.0 KHzCompression mode : LossyDelay relative to video : -80msStream size : 121 MiB (6%)
Menu
Скачать

Скачать торрент! Скуби-Ду и Школа Вампиров / Scooby-Doo and the Ghoul School (Чарльз А. Николс / Charles A. Nichols) [1988, Приключения, Комедия, DVB] Dub

Как скачивать? · Что такое торрент? · Рейтинг и ограничения

Сайт не распространяет и не хранит электронные версии произведений, а лишь предоставляет доступ к создаваемому пользователями каталогу ссылок на торрент-файлы, которые содержат только списки хеш-сумм

[Профиль] [ЛС]
Показать сообщения:    
Ответить на тему

Текущее время: Сегодня 01:28

Часовой пояс: GMT + 4



Вы не можете начинать темы
Вы не можете отвечать на сообщения
Вы не можете редактировать свои сообщения
Вы не можете удалять свои сообщения
Вы не можете голосовать в опросах
Вы не можете прикреплять файлы к сообщениям
Вы не можете скачивать файлы