Красотка (Дмитрий Петрунь) [2012, мелодрама, HDTVRip 720p]

Ответить на тему
 
Автор Сообщение

user ®

Стаж: 7 лет 7 месяцев

Сообщений: 20008

Пост Пост: #1 от 29-Сен-2013 03:45

[Цитировать]

Красотка
Выпущено: Россия, компания «Русское»
Жанр: мелодрама
Год выпуска: 2012
Продолжительность: 01:30:03
Субтитры: нет
Режиссер: Дмитрий Петрунь
В ролях: Илья Носков, Анна Старшенбаум, Сергей Комаров, Наталия Антонова, Игорь Ясулович, Роман Мадянов, Ричард Бондарев, Сергей Серов, Ольга Хохлова, Ольга Штыркова, Ангелина Лакатош, Юрий Бондаренко, Юрий Гумиров, Юлия Ковалёва, Анастасия Логинова, Елена Блинникова, Наталья Унгард, Александр Федичкин, Михаил Инчин, Василий Бочкарёв, Леонид Трегуб, Александр Сибирцев, Алексей Белоус, Николай Аверюшкин, Владимир Кебин, Кирилл Мелехов
Описание: Кирилл, молодой успешный предприниматель, приглашен на важный деловой ужин, открывающий новые перспективы для его бизнеса. Однако есть одно непременное условие: он должен привести свою невесту, с которой до сих пор никого не познакомил. Но невеста отказывается составить ему компанию, они ссорятся. К счастью, благосклонная судьба подкидывает выход из положения: Кирилл случайно знакомится с красивой и острой на язык Лизой, которую вполне можно выдать за невесту. Если бы герой знал, с кем связывается, он бы поостерегся впускать незнакомку в свою жизнь..

Автор рипа / записи: fanatus
Качество видео: HDTVRip 720p
Исходник: Запись с телеканала РОССИЯ HD
Контейнер: MKV
Видео: MPEG-4 AVC, 3274 kbps , 1280x720 (16:9), 25.000 fps, 0.142 bit/pixel
Аудио: AC3, 2 ch, 48 kHz, 192 kbps

MediaInfo

General
Unique ID : 214329221922895507179814638059460122812 (0xA13E4E8057B28381B76BBC125B6E58BC)
Complete name : D:\Krasotka.2012.x264.HDTVRip.720p.fanatus.mkv
Format : Matroska
Format version : Version 2
File size : 2.18 GiB
Duration : 1h 30mn
Overall bit rate : 3 467 Kbps
Movie name : Krasotka (2012) - fanatus
Encoded date : UTC 2013-09-28 14:51:13
Writing application : mkvmerge v3.4.0 ('Rapunzel') сборка от May 15 2010 09:38:20
Writing library : libebml v0.8.0 + libmatroska v0.9.0
Video
ID : 1
Format : AVC
Format/Info : Advanced Video Codec
Format profile : High@L4.1
Format settings, CABAC : Yes
Format settings, ReFrames : 9 frames
Codec ID : V_MPEG4/ISO/AVC
Duration : 1h 30mn
Bit rate : 3 274 Kbps
Width : 1 280 pixels
Height : 720 pixels
Display aspect ratio : 16:9
Frame rate : 25.000 fps
Color space : YUV
Chroma subsampling : 4:2:0
Bit depth : 8 bits
Scan type : Progressive
Bits/(Pixel*Frame) : 0.142
Stream size : 2.02 GiB (92%)
Title : Krasotka (2012)
Writing library : x264 core 138 r2358 9e941d1
Encoding settings : cabac=1 / ref=9 / deblock=1:-2:-2 / analyse=0x3:0x113 / me=umh / subme=10 / psy=1 / psy_rd=1.00:0.10 / mixed_ref=1 / me_range=32 / chroma_me=1 / trellis=2 / 8x8dct=1 / cqm=0 / deadzone=21,11 / fast_pskip=0 / chroma_qp_offset=-3 / threads=16 / lookahead_threads=2 / sliced_threads=0 / nr=0 / decimate=0 / interlaced=0 / bluray_compat=0 / constrained_intra=0 / bframes=9 / b_pyramid=2 / b_adapt=2 / b_bias=0 / direct=3 / weightb=1 / open_gop=0 / weightp=2 / keyint=250 / keyint_min=25 / scenecut=40 / intra_refresh=0 / rc=2pass / mbtree=0 / bitrate=3274 / ratetol=1.0 / qcomp=0.65 / qpmin=0 / qpmax=69 / qpstep=4 / cplxblur=20.0 / qblur=0.5 / ip_ratio=1.40 / pb_ratio=1.30 / aq=1:0.90
Language : Russian
Default : Yes
Forced : No
Matrix coefficients : BT.709-5, BT.1361, IEC 61966-2-4 709, SMPTE RP177
Audio
ID : 2
Format : AC-3
Format/Info : Audio Coding 3
Mode extension : CM (complete main)
Format settings, Endianness : Big
Codec ID : A_AC3
Duration : 1h 30mn
Bit rate mode : Constant
Bit rate : 192 Kbps
Channel(s) : 2 channels
Channel positions : Front: L R
Sampling rate : 48.0 KHz
Bit depth : 16 bits
Compression mode : Lossy
Stream size : 124 MiB (6%)
Title : Original
Language : Russian
Default : Yes
Forced : No

Скриншот c названием фильма

Скриншоты

Скачать

Скачать торрент!

Как скачивать? · Что такое торрент? · Рейтинг и ограничения

Сайт не распространяет и не хранит электронные версии произведений, а лишь предоставляет доступ к создаваемому пользователями каталогу ссылок на торрент-файлы, которые содержат только списки хеш-сумм

[Профиль] [ЛС]
Показать сообщения:    
Ответить на тему

Текущее время: Сегодня 20:06

Часовой пояс: GMT + 4



Вы не можете начинать темы
Вы не можете отвечать на сообщения
Вы не можете редактировать свои сообщения
Вы не можете удалять свои сообщения
Вы не можете голосовать в опросах
Вы не можете прикреплять файлы к сообщениям
Вы не можете скачивать файлы