Ученик мастера: Рождение легенды / Нулевой Тай-цзи / Tai Chi Zero / Tai Chi 0 / 太極之零開始 (Стивен Фунь / Стивен Фанг / Стивен Фунг / Stephen Fung) [2012, Китай, боевик, приключения, стимпанк, DVB] Dub (Soulpro)

Ответить на тему
 
Автор Сообщение

user ®

Стаж: 11 лет

Сообщений: 15151

Пост Пост: #1 от 28-Сен-2013 18:15

[Цитировать]

Ученик мастера: Рождение легенды
Tai Chi Zero- Страна: Китай
Жанр: боевик, приключения, стимпанк
Год выпуска: 2012
Продолжительность: 01:33:58Перевод: Профессиональный (дублированный) (студия "Soulpro", роли дублировали: Иван Калинин, Станислав Стрелков, Ольга Голованова, Антон Савенков, Александр Воронов, Татьяна Шарко, Екатерина Мирошникова, Владимир Рыбаченко и др.)
Cубтитры: нет
Оригинальная аудиодорожка: нет
Режиссер: Стивен Фунь / Стивен Фанг / Стивен Фунг / Stephen Fung
В ролях: Стивен Фунь / Stephen Fung (Nan / Yang Lu Chan), Энджела Бэйби / Angelababy (Chen Yu Niang), Эдди Пэн / Eddie Peng (Fang Zi Jing), Тони Люн Ка Фай / Tony Leung Ka Fai (Chen Chang Xing / Laborer), Мэнди Лью / Mandy Lieu (Claire Heathrow), Хак-Он-Фанг / Hark-On Fung (Lao Zhao)
Описание: Необыкновенно одарённого ребёнка Яна все считают местным дурачком, но он не обращает на это внимание. Ян отправляется в затерянную в горах деревню мастеров кунг-фу, чтобы изучить тайны этой борьбы. Но, он недостоин обучаться великому искусству — в первом же бою он проиграл девушке. Только местный нищий старик сочувствует ему и берется научить его. Эти навыки ему пригодятся в борьбе с злодеями, чтобы вернуть доверие жителей деревни и завоевать сердце красавицы Юнь. Ведь нищий старик, на самом деле, великий мастер кунгфу и отец Юнь. Битва начинается! (анонс канала "Премьера")
Доп. информация: Запись со спутника (телеканал "Премьера").
Награды: 2 номинации Golden Horse Film Festival 2012 (лучшая хореография, художник по костюмам); 4 номинации Hong Kong Film Awards 2013 (лучшая хореография, художник-постановщик, художник по костюмам, лучшие видеоэффекты).
Информация: http://www.imdb.com/title/tt1981080/
Сэмпл: http://multi-up.com/907610
Качество видео: DVB
Формат видео: MPEG-PS
Видео: MPEG Video 2, 720x576@1024x576 (16:9), 25 fps, ~2828 kbps avg, 0.273 bit/pixel
Аудио: 48 kHz, MPEG Audio 2, 2 ch, ~192.00 kbps avg

MediaInfo

Полное имя : H:\My Torrents\[apreder]Tai_Chi_Zero(2012)DVB.mpgФормат : MPEG-PSРазмер файла : 2,02 ГбайтПродолжительность : 1 ч. 34 м.Режим общего битрейта : ПеременныйОбщий поток : 3081 Кбит/сек
ВидеоИдентификатор : 224 (0xE0)Формат : MPEG VideoВерсия формата : Version 2Профиль формата : Main@MainПараметр BVOP формата : ДаПараметр матрицы формата : ВыборочнаяПараметр GOP формата : VariableПродолжительность : 1 ч. 34 м.Вид битрейта : ПеременныйБитрейт : 2828 Кбит/секШирина : 720 пикселейВысота : 576 пикселейСоотношение сторон : 16:9Частота кадров : 25,000 кадров/секСтандарт вещания : PALЦветовое пространство : YUVСубдискретизация насыщенности : 4:2:0Битовая глубина : 8 битТип развёртки : ЧересстрочнаяПорядок развёртки : Верхнее поле первоеМетод сжатия : С потерямиБит/(Пиксели*Кадры) : 0.273TimeCode_FirstFrame : 00:00:00:00TimeCode_Source : Group of pictures headerРазмер потока : 1,86 Гбайт (92%)
АудиоИдентификатор : 192 (0xC0)Формат : MPEG AudioВерсия формата : Version 1Профиль формата : Layer 2Продолжительность : 1 ч. 34 м.Вид битрейта : ПостоянныйБитрейт : 192 Кбит/секКаналы : 2 каналаЧастота : 48,0 КГцМетод сжатия : С потерямиРазмер потока : 129 Мбайт (6%)

Скриншот c названием фильма

Скриншоты


Резервные скриншоты


-987/969√
Скачать

Скачать торрент! Ученик мастера: Рождение легенды / Нулевой Тай-цзи / Tai Chi Zero / Tai Chi 0 / 太極之零開始 (Стивен Фунь / Стивен Фанг / Стивен Фунг / Stephen Fung) [2012, Китай, боевик, приключения, стимпанк, DVB] Dub (Soulpro)

Как скачивать? · Что такое торрент? · Рейтинг и ограничения

Сайт не распространяет и не хранит электронные версии произведений, а лишь предоставляет доступ к создаваемому пользователями каталогу ссылок на торрент-файлы, которые содержат только списки хеш-сумм

[Профиль] [ЛС]
Показать сообщения:    
Ответить на тему

Текущее время: Сегодня 23:51

Часовой пояс: GMT + 4



Вы не можете начинать темы
Вы не можете отвечать на сообщения
Вы не можете редактировать свои сообщения
Вы не можете удалять свои сообщения
Вы не можете голосовать в опросах
Вы не можете прикреплять файлы к сообщениям
Вы не можете скачивать файлы