Два дня / 2 дня (Авдотья Смирнова) [2011, драма, мелодрама, комедия, HDRip-AVC]

Ответить на тему
 
Автор Сообщение

user ®

Стаж: 7 лет 7 месяцев

Сообщений: 20008

Пост Пост: #1 от 28-Сен-2013 18:15

[Цитировать]

Два дня / 2 дня- Год выпуска: 2011
Жанр: Драма, мелодрама, комедия
Продолжительность: 1:29:43-Режиссер: Авдотья Смирнова
В ролях: Фёдор Бондарчук, Ксения Раппопорт, Евгений Муравич, Ирина Розанова, Борис Каморзин, Геннадий Смирнов, Константин Шелестун, Мария Семенова, Андрей Смирнов, Ольга Дыховичная и др.-Описание: Петр Дроздов, высокопоставленный чиновник из Москвы, приезжает в провинциальный музей полузабытого классика русской литературы по просьбе губернатора области, который хочет отнять у музея земельные владения и построить на них новую резиденцию. И поначалу Дроздов поддерживает это решение, но знакомство с Машей, молодым литературоведом, работающей в музее заместителем директора, меняет его взгляд не только на эту проблему, но и вообще на всю его жизнь…-Премьера в России: 8 сентября, 2011 г.
Бюджет: 50 000 000 руб.
Сборы в России: $615 913
-Качество видео: HDRip-AVC
Исходник: BDRip 1080p
Формат видео: MKV
Видео: 1040x442 (2.35:1), 25 fps, x264 ~1876 kbps avg, 0.163 bit/pixel
Аудио: 48 kHz, AС3, 3/2 (L,C,R,l,r) + LFE ch, ~448 kbps
Размер: 1492.73 Mb ( 1 565 242 411 bytes ) ⅓ DVD

MediaInfo

Код:
General
Unique ID : 225792926905407767943983553475357342017 (0xA9DE22CB60AC337288211AB6F6027941)
Complete name : C:\Torrents\2dnya\2_Dnya.2011.HDRip-AVC.[R.G.AllFilms].mkv
Format : Matroska
Format version : Version 2
File size : 1.46 GiB
Duration : 1h 29mn
Overall bit rate : 2 326 Kbps
Movie name : 2 Дня (2011) - BDRip by (DeeKay)
Encoded date : UTC 2012-05-05 16:57:31
Writing application : mkvmerge v5.2.1 ('A Far Off Place') built on Jan 2 2012 23:21:10
Writing library : libebml v1.2.3 + libmatroska v1.3.0
Video
ID : 1
Format : AVC
Format/Info : Advanced Video Codec
Format profile : High@L3.2
Format settings, CABAC : Yes
Format settings, ReFrames : 10 frames
Codec ID : V_MPEG4/ISO/AVC
Duration : 1h 29mn
Bit rate : 1 876 Kbps
Width : 1 040 pixels
Height : 442 pixels
Display aspect ratio : 2.35:1
Frame rate : 25.000 fps
Color space : YUV
Chroma subsampling : 4:2:0
Bit depth : 8 bits
Scan type : Progressive
Bits/(Pixel*Frame) : 0.163
Stream size : 1.15 GiB (79%)
Writing library : x264 core 124 r2197kMod 69a0443
Encoding settings : cabac=1 / ref=10 / deblock=1:-2:-1 / analyse=0x3:0x133 / me=umh / subme=11 / psy=1 / fade_compensate=0.90 / psy_rd=1.00:0.10 / mixed_ref=1 / me_range=32 / chroma_me=1 / trellis=2 / 8x8dct=1 / cqm=0 / deadzone=21,11 / fast_pskip=0 / chroma_qp_offset=-3 / threads=6 / sliced_threads=0 / nr=0 / decimate=1 / interlaced=0 / bluray_compat=0 / constrained_intra=0 / bframes=12 / b_pyramid=2 / b_adapt=2 / b_bias=0 / direct=3 / weightb=1 / open_gop=0 / weightp=2 / keyint=250 / keyint_min=25 / scenecut=40 / intra_refresh=0 / rc_lookahead=100 / rc=2pass / mbtree=1 / bitrate=1876 / ratetol=1.0 / qcomp=0.70 / qpmin=0 / qpmax=69 / qpstep=4 / cplxblur=20.0 / qblur=0.5 / vbv_maxrate=20000 / vbv_bufsize=20000 / nal_hrd=none / ip_ratio=1.35 / aq=3:0.90
Language : Russian
Default : Yes
Forced : Yes
Audio
ID : 2
Format : AC-3
Format/Info : Audio Coding 3
Mode extension : CM (complete main)
Codec ID : A_AC3
Duration : 1h 29mn
Bit rate mode : Constant
Bit rate : 448 Kbps
Channel(s) : 6 channels
Channel positions : Front: L C R, Side: L R, LFE
Sampling rate : 48.0 KHz
Bit depth : 16 bits
Compression mode : Lossy
Stream size : 288 MiB (19%)
Language : Russian
Default : Yes
Forced : No
Menu
00:00:00.000 : :00:00:00.000
00:00:59.600 : :00:00:59.600
00:10:58.480 : :00:10:58.480
00:24:57.280 : :00:24:57.280
00:39:19.040 : :00:39:19.040
00:52:57.480 : :00:52:57.480
01:05:32.360 : :01:05:32.360
01:16:31.120 : :01:16:31.120
01:24:50.560 : :01:24:50.560

x264 log

Код:
x264 [info]: frame I:752 Avg QP:15.93 size: 78342 PSNR Mean Y:47.83 U:53.18 V:53.79 Avg:48.87 Global:47.56
x264 [info]: frame P:26251 Avg QP:18.88 size: 22395 PSNR Mean Y:45.16 U:52.13 V:52.88 Avg:46.30 Global:44.75
x264 [info]: frame B:107593 Avg QP:21.83 size: 5450 PSNR Mean Y:44.32 U:51.53 V:52.29 Avg:45.52 Global:44.25
x264 [info]: consecutive B-frames: 1.0% 1.1% 4.9% 17.0% 9.7% 59.0% 3.6% 1.1% 1.0% 0.4% 0.3% 0.7% 0.4%
x264 [info]: mb I I16..4: 9.7% 67.0% 23.3%
x264 [info]: mb P I16..4: 0.7% 6.6% 1.2% P16..4: 31.5% 34.5% 12.3% 4.3% 0.6% skip: 8.3%
x264 [info]: mb B I16..4: 0.2% 0.6% 0.1% B16..8: 33.5% 16.9% 2.6% direct: 4.1% skip:42.0% L0:41.7% L1:44.0% BI:14.3%
x264 [info]: final ratefactor: 19.01
x264 [info]: 8x8 transform intra:73.7% inter:54.8%
x264 [info]: direct mvs spatial:100.0% temporal:0.0%
x264 [info]: coded y,uvDC,uvAC intra: 85.1% 81.2% 53.6% inter: 20.2% 13.1% 2.0%
x264 [info]: i16 v,h,dc,p: 64% 9% 6% 22%
x264 [info]: i8 v,h,dc,ddl,ddr,vr,hd,vl,hu: 10% 8% 6% 9% 13% 14% 13% 13% 13%
x264 [info]: i4 v,h,dc,ddl,ddr,vr,hd,vl,hu: 12% 11% 7% 8% 14% 14% 12% 11% 12%
x264 [info]: i8c dc,h,v,p: 40% 24% 20% 16%
x264 [info]: Weighted P-Frames: Y:1.3% UV:0.3%
x264 [info]: ref P L0: 42.6% 11.7% 18.6% 6.1% 6.2% 3.8% 4.1% 2.1% 2.4% 2.0% 0.2% 0.0%
x264 [info]: ref B L0: 75.2% 10.9% 5.0% 2.8% 2.0% 1.7% 1.4% 0.7% 0.3%
x264 [info]: ref B L1: 94.3% 5.7%
x264 [info]: SSIM Mean Y:0.9811781 (17.253db)
x264 [info]: PSNR Mean Y:44.414 U:51.703 V:52.425 Avg:45.601 Global:44.783 kb/s:1876.09

Скриншоты



Скачать

Скачать торрент!

Как скачивать? · Что такое торрент? · Рейтинг и ограничения

Сайт не распространяет и не хранит электронные версии произведений, а лишь предоставляет доступ к создаваемому пользователями каталогу ссылок на торрент-файлы, которые содержат только списки хеш-сумм

[Профиль] [ЛС]

WorldCreator

Стаж: 3 года 2 месяца

Сообщений: 172

Пост Пост: #2 от 01-Окт-2013 01:13 (спустя 2 дня 6 часов)

[Цитировать]

Фильм весьма приятный и очень легко смотрится. Мы с женой посмотрели на одном дыхании!!! Огромное спасибо за раздачу!
[Профиль] [ЛС]
Показать сообщения:    
Ответить на тему

Текущее время: Сегодня 09:45

Часовой пояс: GMT + 4



Вы не можете начинать темы
Вы не можете отвечать на сообщения
Вы не можете редактировать свои сообщения
Вы не можете удалять свои сообщения
Вы не можете голосовать в опросах
Вы не можете прикреплять файлы к сообщениям
Вы не можете скачивать файлы