Бедная Liz (Алексей Лисовец) [2013, Романтическая комедия, SATRip]

Ответить на тему
 
Автор Сообщение

user ®

Стаж: 7 лет 7 месяцев

Сообщений: 20008

Пост Пост: #1 от 28-Сен-2013 13:40

[Цитировать]

Бедная Liz
Жанр: Романтическая комедия
Производство: Украина, "Star Media"
Год выпуска: 2013
Продолжительность: 01:27:22
Режиссёр: Алексей Лисовец
В ролях: Мария Машкова, Антон Пампушный, Ниеле Сережникова, Александр Данильченко (II), Лина Будник, Дмитрий Лаленков, Екатерина Кистень, Любовь Тимошевская, Николай Боклан, Галина Корнеева, Николай Олейник
Описание: Сержант канадской полиции Джо Соколофф едет в далекую Россию выполнить последнюю просьбу своей любимой бабушки . Но с первых шагов на исторической родине все планы Джо рушатся – его грабят в поезде «милые соседи». Отстав от поезда, 30-летний любитель родео и кантри –музыки, глядящий на мир радостными широко открытыми глазами, оказывается в маленькой кубанской станице без денег и документов. Смешной чудак в белой ковбойской шляпе (а именно так его поначалу воспринимают станичники) попадает в «странный мир странных русских». Тут топят новорожденных щенков, едят пойманную в реке рыбу, шлепают детей! Но всего несколько дней понадобилось Джо, чтобы понять этих людей, принять их всем сердцем и влюбиться в красавицу-казачку Лизу. Но есть ли будущее у этой любви?...
Релиз от:
Сэмпл
Качество видео: SATRip
Формат видео: AVI
Видео кодек: XviD
Аудио кодек: МР3
Видео: 720x384 (1.88:1), 25 fps, XviD build 50 ~2041 kbps avg, 0.29 bit/pixel
Аудио: 48 kHz, MPEG Layer 3, 2 ch, ~192.00 kbps avg

MediaInfo

Общее
Полное имя : C:\Users\Vytas\Desktop\Naujas aplankas\Bednaja.Liz.2013.SATRip.Files-x.avi
Формат : AVI
Формат/Информация : Audio Video Interleave
Размер файла : 1,37 Гбайт
Продолжительность : 1 ч. 27 м.
Общий поток : 2243 Кбит/сек
Программа кодирования : VirtualDubModRus 1.5.10.2 (build 2542/release)
Библиотека кодирования : VirtualDubMod build 2542/release
Видео
Идентификатор : 0
Формат : MPEG-4 Visual
Профиль формата : Advanced Simple@L5
Параметр BVOP формата : 2
Параметр QPel формата : Нет
Параметр GMC формата : Без точки перехода
Параметр матрицы формата : Default (MPEG)
Идентификатор кодека : DX50
Идентификатор кодека/Подсказка : DivX 5
Продолжительность : 1 ч. 27 м.
Битрейт : 2041 Кбит/сек
Ширина : 720 пикселей
Высота : 384 пикселя
Соотношение сторон : 1,85:1
Частота кадров : 25,000 кадров/сек
Цветовое пространство : YUV
Субдискретизация насыщенности : 4:2:0
Битовая глубина : 8 бит
Тип развёртки : Прогрессивная
Метод сжатия : С потерями
Бит/(Пиксели*Кадры) : 0.295
Размер потока : 1,25 Гбайт (91%)
Библиотека кодирования : XviD 1.2.1 (UTC 2008-12-04)
Аудио
Идентификатор : 1
Формат : MPEG Audio
Версия формата : Version 1
Профиль формата : Layer 3
Идентификатор кодека : 55
Идентификатор кодека/Подсказка : MP3
Продолжительность : 1 ч. 27 м.
Вид битрейта : Постоянный
Битрейт : 192 Кбит/сек
Каналы : 2 канала
Частота : 48,0 КГц
Метод сжатия : С потерями
Размер потока : 120 Мбайт (9%)
Выравнивание : Соединение по промежуткам
Продолжительность промежутка : 40 мс. (1,00 видеокадр)
Время предзагрузки промежутка : 504 мс.
Библиотека кодирования : LAME3.99r
Настройки программы : -m s -V 4 -q 2 -lowpass 18.6 -b 192

Скриншот c названием фильма

Скриншоты

Скачать

Скачать торрент!

Как скачивать? · Что такое торрент? · Рейтинг и ограничения

Сайт не распространяет и не хранит электронные версии произведений, а лишь предоставляет доступ к создаваемому пользователями каталогу ссылок на торрент-файлы, которые содержат только списки хеш-сумм

[Профиль] [ЛС]
Показать сообщения:    
Ответить на тему

Текущее время: Сегодня 22:41

Часовой пояс: GMT + 4



Вы не можете начинать темы
Вы не можете отвечать на сообщения
Вы не можете редактировать свои сообщения
Вы не можете удалять свои сообщения
Вы не можете голосовать в опросах
Вы не можете прикреплять файлы к сообщениям
Вы не можете скачивать файлы