Проклятие Чаки / Curse of Chucky (Дон Манчини / Don Mancini) [2013, США, Ужасы, триллер, WEB-DLRip] VO

Ответить на тему
 
Автор Сообщение

user ®

Стаж: 7 лет 7 месяцев

Сообщений: 20008

Пост Пост: #1 от 28-Сен-2013 13:40

[Цитировать]

-Проклятие Чаки / Curse of Chucky- Страна: СШАЖанр: Ужасы, триллерГод выпуска: 2013Продолжительность: 01:36:41Перевод: Одноголосый закадровый [Xixidok]Cубтитры: нетРежиссер: Дон Манчини / Don Mancini-В ролях: Брэд Дуриф, Даниэль Бисутти, Эй Мартинез, Фиона Дуриф, Бреннан Эллиотт, Алекс Винсент, Шэнтал Куэснел, Мейтленд МакКоннелл, Али Татарин, Кэлли Берард.-Описание: В центре событий окажется молодая женщина по имени Ника тяжело переживающая самоубийство матери. Ее старшая сестра Барбара — властная, волевая женщина, — приезжает вместе с семьей к Нике, чтобы поддержать ее и уладить дела матери. Пока сестры заняты делом, малолетняя дочь Барбары находит в доме посылку пришедшую от неизвестного адресата, а в ней рыжеволосую куклу Чаки. Вскоре происходит череда кровавых убийств. Ника начинает подозревать, что в убийствах неким образом замешана кукла. По ходу дела выясняется, что у Чаки во всем этом есть особый интерес. Он решил закончить работу которую начал 20 лет назад, и в этот раз он намерен довести дело до кровавого и шокирующего финала.-Рейтинг:imdb.com: 5,9 (2 300)kinopoisk.ru: 5,387 (100)MPAA: - лицам до 17 лет обязательно присутствие взрослого-Семпл-Качество видео: WEB-DLRipФормат видео: AVIВидео: 720x400 (1.80:1), 23.976 fps, XviD build 50, 873 kbps avg, 0.13 bit/pixelАудио: 44.100 kHz, MPEG Layer 3, 2 ch, 128.00 kbps avg

MediaInfo

Полное имя : Проклятие Чаки.avi
Формат : AVI
Формат/Информация : Audio Video Interleave
Размер файла : 699 Мбайт
Продолжительность : 1 ч. 36 м.
Общий поток : 1011 Кбит/сек
Программа кодирования : VirtualDubMod 1.5.10.2 (build 2540/release)
Библиотека кодирования : VirtualDubMod build 2540/release
Видео
Идентификатор : 0
Формат : MPEG-4 Visual
Профиль формата : Advanced Simple@L5
Параметр BVOP формата : 2
Параметр QPel формата : Нет
Параметр GMC формата : Без точки перехода
Параметр матрицы формата : Выборочная
Идентификатор кодека : XVID
Идентификатор кодека/Подсказка : XviD
Продолжительность : 1 ч. 36 м.
Битрейт : 874 Кбит/сек
Ширина : 720 пикселей
Высота : 400 пикселей
Соотношение сторон : 16:9
Частота кадров : 23,976 кадра/сек
Цветовое пространство : YUV
Субдискретизация насыщенности : 4:2:0
Битовая глубина : 8 бит
Тип развёртки : Прогрессивная
Метод сжатия : С потерями
Бит/(Пиксели*Кадры) : 0.127
Размер потока : 604 Мбайт (86%)
Библиотека кодирования : XviD 1.2.1 (UTC 2008-12-04)
Аудио
Идентификатор : 1
Формат : MPEG Audio
Версия формата : Version 1
Профиль формата : Layer 3
Режим : Joint stereo
Идентификатор кодека : 55
Идентификатор кодека/Подсказка : MP3
Продолжительность : 1 ч. 36 м.
Вид битрейта : Постоянный
Битрейт : 128 Кбит/сек
Каналы : 2 канала
Частота : 44,1 КГц
Метод сжатия : С потерями
Размер потока : 88,5 Мбайт (13%)
Выравнивание : Разделение по промежуткам
Продолжительность промежутка : 42 мс. (1,00 видеокадр)
Время предзагрузки промежутка : 500 мс.
Библиотека кодирования : LAME3.99r
Настройки программы : -m j -V 4 -q 2 -lowpass 17 -b 128

Скриншоты

Скачать

Скачать торрент!

Как скачивать? · Что такое торрент? · Рейтинг и ограничения

Сайт не распространяет и не хранит электронные версии произведений, а лишь предоставляет доступ к создаваемому пользователями каталогу ссылок на торрент-файлы, которые содержат только списки хеш-сумм

[Профиль] [ЛС]
Показать сообщения:    
Ответить на тему

Текущее время: Сегодня 02:07

Часовой пояс: GMT + 4



Вы не можете начинать темы
Вы не можете отвечать на сообщения
Вы не можете редактировать свои сообщения
Вы не можете удалять свои сообщения
Вы не можете голосовать в опросах
Вы не можете прикреплять файлы к сообщениям
Вы не можете скачивать файлы