3096 дней / 3096 Tage (Шерри Хорман / Sherry Horman) [2013, Германия, драма, биография, HDRip] VO

Ответить на тему
 
Автор Сообщение

user ®

Стаж: 7 лет 7 месяцев

Сообщений: 20008

Пост Пост: #1 от 27-Сен-2013 23:35

[Цитировать]

3096 дней / 3096 Tage
Страна: Германия
Жанр: драма, биография
Год выпуска: 2013
Продолжительность: 01:49:51
Перевод: Одноголосый закадровый (datynet)
Cубтитры: нет
Режиссер: Шерри Хорман / Sherry Horman
В ролях: Туре Линдхардт, Антония Кэмпбелл-Хьюджес, Трине Дюрхольм, Дирбла Моллой, Амелия Пиджон, Эрни Мангольд, Эллен Швирс, Михаэль Гримм, Анджелина Ноа, Рёланд Визнеккер
Описание: Фильм основан на реальной истории похищения австрийской девочки Наташи Кампуш, совершенное бывшим техником Вольфгангом Приклопилом, когда ей было 10 лет. В его плену она провела более восьми лет, или 3096 дней...
* В настоящее время Наташа Мария Кампуш работает телеведущей на австрийском телевидении.

Сэмпл: http://multi-up.com/907353
Качество видео: HDRip
Формат видео: AVI
Видео: DivX, 720х304, 1707 кбит/с, 24 fps
Аудио: AC3, 192 кбит/с, 2 ch, 48 КГц

MediaInfo

Общее
Полное имя : D:\3096_Tage_2013.HDRip.avi
Формат : AVI
Формат/Информация : Audio Video Interleave
Размер файла : 1,46 Гбайт
Продолжительность : 1 ч. 49 м.
Общий поток : 1909 Кбит/сек
Программа кодирования : VirtualDubMod 1.5.10.3 | www.virtualdub-fr.org || (build 2550/release)
Библиотека кодирования : VirtualDubMod build 2550/release
Видео
Идентификатор : 0
Формат : MPEG-4 Visual
Профиль формата : Advanced Simple@L5
Параметр BVOP формата : 1
Параметр QPel формата : Нет
Параметр GMC формата : Без точки перехода
Параметр матрицы формата : Default (MPEG)
Идентификатор кодека : DX50
Идентификатор кодека/Подсказка : DivX 5
Продолжительность : 1 ч. 49 м.
Битрейт : 1707 Кбит/сек
Ширина : 720 пикселей
Высота : 304 пикселя
Соотношение сторон : 2,35:1
Частота кадров : 24,000 кадра/сек
Цветовое пространство : YUV
Субдискретизация насыщенности : 4:2:0
Битовая глубина : 8 бит
Тип развёртки : Прогрессивная
Метод сжатия : С потерями
Бит/(Пиксели*Кадры) : 0.325
Размер потока : 1,31 Гбайт (89%)
Библиотека кодирования : XviD 1.2.1 (UTC 2008-12-04)
Аудио
Идентификатор : 1
Формат : AC-3
Формат/Информация : Audio Coding 3
Расширение режима : CM (complete main)
Параметр Endianness формата : Big
Идентификатор кодека : 2000
Продолжительность : 1 ч. 49 м.
Вид битрейта : Постоянный
Битрейт : 192 Кбит/сек
Каналы : 2 канала
Расположение каналов : Front: L R
Частота : 48,0 КГц
Битовая глубина : 16 бит
Метод сжатия : С потерями
Размер потока : 151 Мбайт (10%)
Выравнивание : Разделение по промежуткам
Продолжительность промежутка : 42 мс. (1,00 видеокадр)
Время предзагрузки промежутка : 500 мс.

Скриншот c названием фильма

Скриншоты

Скачать

Скачать торрент!

Как скачивать? · Что такое торрент? · Рейтинг и ограничения

Сайт не распространяет и не хранит электронные версии произведений, а лишь предоставляет доступ к создаваемому пользователями каталогу ссылок на торрент-файлы, которые содержат только списки хеш-сумм

[Профиль] [ЛС]
Показать сообщения:    
Ответить на тему

Текущее время: Сегодня 16:38

Часовой пояс: GMT + 4



Вы не можете начинать темы
Вы не можете отвечать на сообщения
Вы не можете редактировать свои сообщения
Вы не можете удалять свои сообщения
Вы не можете голосовать в опросах
Вы не можете прикреплять файлы к сообщениям
Вы не можете скачивать файлы