Микроб / Germ / Germ Z (Дж.Т. Бун / J.T. Boone, Джон Крэддок / John Craddock) [2013, США, ужасы, фантастика, боевик, WEB-DL 720p] DVO + VO + Original (Eng) + Sub (eng)

Ответить на тему
 
Автор Сообщение

user ®

Стаж: 7 лет 10 месяцев

Сообщений: 20008

Пост Пост: #1 от 27-Сен-2013 17:15

[Цитировать]

Микроб : Germ«Catch the germ» Страна: США
Год выпуска: 2013
Жанр: ужасы, фантастика, боевик
Продолжительность: 01:24:31
Перевод:
Любительский (Двухголосый закадровый) [den904 и DeadSno]
Одноголосый закадровый [Cmert] по субтитрам [Danny Fasdag]
русские субтитры: нет-Режиссёр: Дж.Т. Бун : J.T. Boone, Джон Крэддок : John Craddock
В главных ролях: Маргарит Митчелл, Майкл Флорес, Бернард Сетаро Кларк, Марк Чиаппоне, Джоди Пуселло, Зои Миллер, Бет Прэтт, Ванесса Смит, Бренден Нэйджел, Дариан Сандберг, Джек Гаргаро, Алисса Кон-Описание: Попытки военных сбить орбитальный спутник порождают эпидемию в удаленном, маленьком городке. Помощник шерифа Макс Брод, и его подруга Брук, должны пробираться через армию зараженных горожан и солдат, они должны спасти себя и своих близких от ужасной смерти.- -Качество: WEB-DL 720p
Формат: MKV
Видео кодек: AVC
Аудио кодек: АС3
Видео: 1280x718, 23.976 fps, ~3 819 kbps avg, 0.173 bit/pixel
Аудио #1: [RUS] 48.0 kHz, AC3 Dolby Digital, 2 ch, ~192 kbps
Аудио #2: [RUS] 48.0 kHz, AC3 Dolby Digital, 2 ch, ~192 kbps
Аудио #3: [ENG] 48 kHz, AC3 Dolby Digital, 3/2 (L,C,R,l,r) + LFE ch, ~384 kbps
субтитры: английские
навигация по главам: 12 глав

скриншоты

MediaInfo

Общее
Уникальный идентификатор : 242984050752738187022135807587664526361 (0xB6CD06A3B279F05783B05A863003FC19)
Полное имя : D:\Im\Микроб\Germ.2013.WEB-DL 720p.mkv
Формат : Matroska
Версия формата : Version 4 / Version 2
Размер файла : 2,76 Гбайт
Продолжительность : 1 ч. 24 м.
Общий поток : 4680 Кбит/сек
Дата кодирования : UTC 2013-09-27 06:39:57
Программа кодирования : mkvmerge v6.4.1 ('Omega Point') built on Sep 16 2013 22:05:10
Библиотека кодирования : libebml v1.3.0 + libmatroska v1.4.1
Видео
Идентификатор : 1
Формат : AVC
Формат/Информация : Advanced Video Codec
Профиль формата : High@L3.1
Параметр CABAC формата : Нет
Параметр ReFrames формата : 2 кадра
Идентификатор кодека : V_MPEG4/ISO/AVC
Продолжительность : 1 ч. 24 м.
Битрейт : 3819 Кбит/сек
Ширина : 1280 пикселей
Высота : 718 пикселей
Соотношение сторон : 16:9
Частота кадров : 23,976 кадра/сек
Цветовое пространство : YUV
Субдискретизация насыщенности : 4:2:0
Битовая глубина : 8 бит
Тип развёртки : Прогрессивная
Бит/(Пиксели*Кадры) : 0.173
Размер потока : 2,25 Гбайт (82%)
Язык : English
Default : Да
Forced : Нет
Основные цвета : BT.709-5, BT.1361, IEC 61966-2-4, SMPTE RP177
Характеристики трансфера : BT.709-5, BT.1361
Коэффициенты матрицы : BT.709-5, BT.1361, IEC 61966-2-4 709, SMPTE RP177
Аудио #1
Идентификатор : 2
Формат : AC-3
Формат/Информация : Audio Coding 3
Расширение режима : CM (complete main)
Идентификатор кодека : A_AC3
Продолжительность : 1 ч. 24 м.
Вид битрейта : Постоянный
Битрейт : 192 Кбит/сек
Каналы : 2 канала
Расположение каналов : Front: L R
Частота : 48,0 КГц
Битовая глубина : 16 бит
Метод сжатия : С потерями
Размер потока : 116 Мбайт (4%)
Заголовок : DVO [den904 и DeadSno]
Язык : Russian
Default : Да
Forced : Нет
Аудио #2
Идентификатор : 3
Формат : AC-3
Формат/Информация : Audio Coding 3
Расширение режима : CM (complete main)
Идентификатор кодека : A_AC3
Продолжительность : 1 ч. 24 м.
Вид битрейта : Постоянный
Битрейт : 192 Кбит/сек
Каналы : 2 канала
Расположение каналов : Front: L R
Частота : 48,0 КГц
Битовая глубина : 16 бит
Метод сжатия : С потерями
Размер потока : 116 Мбайт (4%)
Заголовок : VO [Cmert]
Язык : Russian
Default : Нет
Forced : Нет
Аудио #3
Идентификатор : 4
Формат : AC-3
Формат/Информация : Audio Coding 3
Расширение режима : CM (complete main)
Идентификатор кодека : A_AC3
Продолжительность : 1 ч. 24 м.
Вид битрейта : Постоянный
Битрейт : 384 Кбит/сек
Каналы : 6 каналов
Расположение каналов : Front: L C R, Side: L R, LFE
Частота : 48,0 КГц
Битовая глубина : 16 бит
Метод сжатия : С потерями
Размер потока : 232 Мбайт (8%)
Заголовок : ENG
Язык : English
Default : Нет
Forced : Нет
Текст
Идентификатор : 5
Формат : UTF-8
Идентификатор кодека : S_TEXT/UTF8
Идентификатор кодека/Информация : UTF-8 Plain Text
Заголовок : Eng Sub
Язык : English
Default : Нет
Forced : Нет
Меню
00:00:00.000 : en:Chapter 01
00:09:38.000 : en:Chapter 02
00:17:17.000 : en:Chapter 03
00:24:44.000 : en:Chapter 04
00:33:57.000 : en:Chapter 05
00:40:58.000 : en:Chapter 06
00:49:06.000 : en:Chapter 07
00:56:27.000 : en:Chapter 08
01:04:25.000 : en:Chapter 09
01:11:45.000 : en:Chapter 10
01:18:45.000 : en:Chapter 11
01:21:34.000 : en:Chapter 12
Скачать

Скачать торрент!

Как скачивать? · Что такое торрент? · Рейтинг и ограничения

Сайт не распространяет и не хранит электронные версии произведений, а лишь предоставляет доступ к создаваемому пользователями каталогу ссылок на торрент-файлы, которые содержат только списки хеш-сумм

[Профиль] [ЛС]
Показать сообщения:    
Ответить на тему

Текущее время: Сегодня 02:35

Часовой пояс: GMT + 4



Вы не можете начинать темы
Вы не можете отвечать на сообщения
Вы не можете редактировать свои сообщения
Вы не можете удалять свои сообщения
Вы не можете голосовать в опросах
Вы не можете прикреплять файлы к сообщениям
Вы не можете скачивать файлы