Неудержимый / Bullet to the Head (Уолтер Хилл / Walter Hill) [2012, США, боевик, триллер, криминал, BDRip 720p] [US transfer] Dub + Ukr + AVO (А. Гаврилов, Ю. Сербин, Л. Володарский) + VO (А. Киреев) + Original (Eng) + Sub (Rus, Ukr, Eng)

Ответить на тему
 
Автор Сообщение

user ®

Стаж: 7 лет 7 месяцев

Сообщений: 20008

Пост Пост: #1 от 27-Сен-2013 17:15

[Цитировать]

Неудержимый / Bullet to the Head
Страна: США
Студия: AfterDark Films, Automatik Entertainment, Dark Castle Entertainment, EMJAG Productions, IM Global, Millar Gough Ink, Silver Reel
Жанр: боевик, триллер, криминал
Год выпуска: 2012
Продолжительность: 01:31:33
Перевод 1: Профессиональный (дублированный) [Blu-ray Rus]
Перевод 2: Профессиональный (многоголосый закадровый) [Ukr]
Перевод 3: Авторский (одноголосый закадровый) [А. Гаврилов]
Перевод 4: Авторский (одноголосый закадровый) [Ю. Сербин]
Перевод 5: Авторский (одноголосый закадровый) [Л. Володарский]
Перевод 6: Одноголосый закадровый [А. Киреев]
Оригинальная аудиодорожка: английская
Cубтитры: русские (Dub, Goblin), украинские (SDH), английские (Full, SDH, SDH Colored)
Режиссер: Уoлтeр Xилл / Wаlter Hіll
В ролях: Сильвестр Сталлоне, Джейсон Момоа, Санни Кенг, Сара Шахи, Кристиан Слэйтер, Адевале Акиннуойе-Агбайе, Сунг Кан, Холт МакКаллани, Брайан Ван Холт, Джон Седа, Вероника Росати, Маркус Лайл Браун, Дэйн Роудс
Описание: Неудержимый наемник объединяется с детективом из Нью-Йорка, чтобы найти убийцу своих друзей. Он пожертвует всем, чтобы отомстить.

Релиз: fanatus
Качество видео: BDRip 720p
Исходник: Bullet.to.the.Head.2012.1080p.BD-Remux.2xRus.Eng.HDCLUB
Контейнер: MKV
Видео: MPEG-4 AVC, 8000 Kbps , 1280x692 (1.85:1), 23.976 fps, 0.377 bit/pixel
Аудио 1: русский (AC3, 6 ch, 48 kHz, 640 kbps) Dub (Blu-ray Rus)
Аудио 2: украинский (AC3, 6 ch, 48 kHz, 384 kbps) MVO (Ukr)
Аудио 3: русский (AC3, 6 ch, 48 kHz, 640 kbps) AVO (A. Gavrilov)
Аудио 4: русский (AC3, 6 ch, 48 kHz, 640 kbps) AVO (Y. Serbin)
Аудио 5: русский (AC3, 6 ch, 48 kHz, 640 kbps) AVO (L. Volodarskij)
Аудио 6: русский (AC3, 6 ch, 48 kHz, 640 kbps) VO (A. Kireev)
Аудио 7: английский (AC3, 6 ch, 48 kHz, 640 kbps) Original
Формат субтитров: softsub (SRT)
Главы: есть

MediaInfo

General
Unique ID : 229487828799825983710759440217848426197 (0xACA5BF85D3E8672FB70CAEC7C5B82ED5)
Complete name : F:\Bullet to the Head.2012.x264.BDRip.720p.fanatus.mkv
Format : Matroska
Format version : Version 2
File size : 7.82 GiB
Duration : 1h 31mn
Overall bit rate : 12.2 Mbps
Movie name : Bullet to the Head (2012) - fanatus
Encoded date : UTC 2013-09-27 06:25:03
Writing application : mkvmerge v3.4.0 ('Rapunzel') сборка от May 15 2010 09:38:20
Writing library : libebml v0.8.0 + libmatroska v0.9.0
Video
ID : 1
Format : AVC
Format/Info : Advanced Video Codec
Format profile : High@L4.1
Format settings, CABAC : Yes
Format settings, ReFrames : 9 frames
Codec ID : V_MPEG4/ISO/AVC
Duration : 1h 31mn
Bit rate : 8 000 Kbps
Width : 1 280 pixels
Height : 692 pixels
Display aspect ratio : 1.85:1
Frame rate : 23.976 fps
Color space : YUV
Chroma subsampling : 4:2:0
Bit depth : 8 bits
Scan type : Progressive
Bits/(Pixel*Frame) : 0.377
Stream size : 4.96 GiB (63%)
Title : Bullet to the Head (2012)
Writing library : x264 core 138 r2358kMod 9e941d1
Encoding settings : cabac=1 / ref=9 / deblock=1:-3:-3 / analyse=0x3:0x113 / me=tesa / subme=11 / psy=1 / fade_compensate=0.00 / psy_rd=1.00:0.20 / mixed_ref=1 / me_range=32 / chroma_me=1 / trellis=2 / 8x8dct=1 / cqm=0 / deadzone=21,11 / fast_pskip=0 / chroma_qp_offset=-3 / threads=16 / lookahead_threads=4 / sliced_threads=0 / nr=0 / decimate=0 / interlaced=0 / bluray_compat=0 / constrained_intra=0 / bframes=13 / b_pyramid=2 / b_adapt=2 / b_bias=0 / direct=3 / weightb=1 / open_gop=0 / weightp=2 / keyint=240 / keyint_min=23 / scenecut=40 / intra_refresh=0 / rc_lookahead=240 / rc=2pass / mbtree=1 / bitrate=8000 / ratetol=1.0 / qcomp=0.75 / qpmin=0 / qpmax=69 / qpstep=4 / cplxblur=20.0 / qblur=0.5 / vbv_maxrate=50000 / vbv_bufsize=62500 / nal_hrd=none / ip_ratio=1.30 / aq=3:0.70
Language : English
Default : Yes
Forced : No
Audio #1
ID : 2
Format : AC-3
Format/Info : Audio Coding 3
Mode extension : CM (complete main)
Format settings, Endianness : Big
Codec ID : A_AC3
Duration : 1h 31mn
Bit rate mode : Constant
Bit rate : 640 Kbps
Channel(s) : 6 channels
Channel positions : Front: L C R, Side: L R, LFE
Sampling rate : 48.0 KHz
Bit depth : 16 bits
Compression mode : Lossy
Stream size : 419 MiB (5%)
Title : Dub
Language : Russian
Default : Yes
Forced : No
Audio #2
ID : 3
Format : AC-3
Format/Info : Audio Coding 3
Mode extension : CM (complete main)
Format settings, Endianness : Big
Codec ID : A_AC3
Duration : 1h 31mn
Bit rate mode : Constant
Bit rate : 384 Kbps
Channel(s) : 6 channels
Channel positions : Front: L C R, Side: L R, LFE
Sampling rate : 48.0 KHz
Bit depth : 16 bits
Compression mode : Lossy
Stream size : 251 MiB (3%)
Title : MVO
Language : Ukrainian
Default : No
Forced : No
Audio #3
ID : 4
Format : AC-3
Format/Info : Audio Coding 3
Mode extension : CM (complete main)
Format settings, Endianness : Big
Codec ID : A_AC3
Duration : 1h 31mn
Bit rate mode : Constant
Bit rate : 640 Kbps
Channel(s) : 6 channels
Channel positions : Front: L C R, Side: L R, LFE
Sampling rate : 48.0 KHz
Bit depth : 16 bits
Compression mode : Lossy
Stream size : 419 MiB (5%)
Title : AVO (A. Gavrilov)
Language : Russian
Default : No
Forced : No
Audio #4
ID : 5
Format : AC-3
Format/Info : Audio Coding 3
Mode extension : CM (complete main)
Format settings, Endianness : Big
Codec ID : A_AC3
Duration : 1h 31mn
Bit rate mode : Constant
Bit rate : 640 Kbps
Channel(s) : 6 channels
Channel positions : Front: L C R, Side: L R, LFE
Sampling rate : 48.0 KHz
Bit depth : 16 bits
Compression mode : Lossy
Stream size : 419 MiB (5%)
Title : AVO (Y. Serbin)
Language : Russian
Default : No
Forced : No
Audio #5
ID : 6
Format : AC-3
Format/Info : Audio Coding 3
Mode extension : CM (complete main)
Format settings, Endianness : Big
Codec ID : A_AC3
Duration : 1h 31mn
Bit rate mode : Constant
Bit rate : 640 Kbps
Channel(s) : 6 channels
Channel positions : Front: L C R, Side: L R, LFE
Sampling rate : 48.0 KHz
Bit depth : 16 bits
Compression mode : Lossy
Stream size : 419 MiB (5%)
Title : AVO (L. Volodarskij)
Language : Russian
Default : No
Forced : No
Audio #6
ID : 7
Format : AC-3
Format/Info : Audio Coding 3
Mode extension : CM (complete main)
Format settings, Endianness : Big
Codec ID : A_AC3
Duration : 1h 31mn
Bit rate mode : Constant
Bit rate : 640 Kbps
Channel(s) : 6 channels
Channel positions : Front: L C R, Side: L R, LFE
Sampling rate : 48.0 KHz
Bit depth : 16 bits
Compression mode : Lossy
Stream size : 419 MiB (5%)
Title : VO (A. Kireev)
Language : Russian
Default : No
Forced : No
Audio #7
ID : 8
Format : AC-3
Format/Info : Audio Coding 3
Mode extension : CM (complete main)
Format settings, Endianness : Big
Codec ID : A_AC3
Duration : 1h 31mn
Bit rate mode : Constant
Bit rate : 640 Kbps
Channel(s) : 6 channels
Channel positions : Front: L C R, Side: L R, LFE
Sampling rate : 48.0 KHz
Bit depth : 16 bits
Compression mode : Lossy
Stream size : 419 MiB (5%)
Title : Original
Language : English
Default : No
Forced : No
Text #1
ID : 9
Format : UTF-8
Codec ID : S_TEXT/UTF8
Codec ID/Info : UTF-8 Plain Text
Title : Dub
Language : Russian
Default : No
Forced : No
Text #2
ID : 10
Format : UTF-8
Codec ID : S_TEXT/UTF8
Codec ID/Info : UTF-8 Plain Text
Title : Goblin
Language : Russian
Default : No
Forced : No
Text #3
ID : 11
Format : UTF-8
Codec ID : S_TEXT/UTF8
Codec ID/Info : UTF-8 Plain Text
Title : SDH
Language : Ukrainian
Default : No
Forced : No
Text #4
ID : 12
Format : UTF-8
Codec ID : S_TEXT/UTF8
Codec ID/Info : UTF-8 Plain Text
Title : Full
Language : English
Default : No
Forced : No
Text #5
ID : 13
Format : UTF-8
Codec ID : S_TEXT/UTF8
Codec ID/Info : UTF-8 Plain Text
Title : SDH
Language : English
Default : No
Forced : No
Text #6
ID : 14
Format : UTF-8
Codec ID : S_TEXT/UTF8
Codec ID/Info : UTF-8 Plain Text
Title : SDH Colored
Language : English
Default : No
Forced : No
Menu
00:00:00.000 : en:Chapter 01
00:06:32.433 : en:Chapter 02
00:07:43.378 : en:Chapter 03
00:11:30.439 : en:Chapter 04
00:16:25.109 : en:Chapter 05
00:21:54.354 : en:Chapter 06
00:27:53.545 : en:Chapter 07
00:30:30.078 : en:Chapter 08
00:34:59.931 : en:Chapter 09
00:40:39.311 : en:Chapter 10
00:47:19.294 : en:Chapter 11
00:56:18.375 : en:Chapter 12
01:00:55.109 : en:Chapter 13
01:03:45.446 : en:Chapter 14
01:07:01.183 : en:Chapter 15
01:09:18.571 : en:Chapter 16
01:13:50.968 : en:Chapter 17
01:17:32.356 : en:Chapter 18
01:23:24.332 : en:Chapter 19
01:26:23.011 : en:Chapter 20

x264 [info]

x264 [info]: 1280x692p 1:1 @ 24000/1001 fps (cfr)
x264 [info]: using SAR=1/1
x264 [info]: using cpu capabilities: MMX2 SSE2Fast SSSE3 SSE4.2 AVX
x264 [info]: profile High, level 4.1
x264 [info]: cabac=1 ref=9 deblock=1:-3:-3 analyse=0x3:0x113 me=tesa subme=11 psy=1 fade_compensate=0.00 psy_rd=1.00:0.20 mixed_ref=1 me_range=32 chroma_me=1 trellis=2 8x8dct=1 cqm=0 deadzone=21,11 fast_pskip=0 chroma_qp_offset=-3 threads=16 lookahead_threads=4 sliced_threads=0 nr=0 decimate=0 interlaced=0 bluray_compat=0 constrained_intra=0 bframes=13 b_pyramid=2 b_adapt=2 b_bias=0 direct=3 weightb=1 open_gop=0 weightp=2 keyint=240 keyint_min=23 scenecut=40 intra_refresh=0 rc_lookahead=240 rc=2pass mbtree=1 bitrate=8000 ratetol=1.0 qcomp=0.75 qpmin=0 qpmax=69 qpstep=4 cplxblur=20.0 qblur=0.5 vbv_maxrate=50000 vbv_bufsize=62500 nal_hrd=none ip_ratio=1.30 aq=3:0.70
x264 [info]: frame I:762 Avg QP:14.61 size:114299
x264 [info]: frame P:31760 Avg QP:17.28 size: 56244
x264 [info]: frame B:99191 Avg QP:18.10 size: 36464
x264 [info]: consecutive B-frames: 3.5% 6.0% 9.4% 16.0% 17.5% 39.5% 3.7% 0.7% 1.0% 1.0% 0.4% 0.2% 0.5% 0.6%
x264 [info]: mb I I16..4: 23.0% 59.2% 17.7%
x264 [info]: mb P I16..4: 2.9% 20.2% 2.4% P16..4: 22.2% 27.3% 11.5% 0.0% 0.0% skip:13.5%
x264 [info]: mb B I16..4: 0.4% 4.0% 0.5% B16..8: 30.3% 24.2% 6.4% direct: 9.5% skip:24.8% L0:44.4% L1:42.0% BI:13.7%
x264 [info]: 8x8 transform intra:79.1% inter:37.6%
x264 [info]: direct mvs spatial:97.8% temporal:2.2%
x264 [info]: coded y,uvDC,uvAC intra: 87.5% 77.3% 57.5% inter: 46.2% 29.0% 10.7%
x264 [info]: i16 v,h,dc,p: 29% 5% 20% 45%
x264 [info]: i8 v,h,dc,ddl,ddr,vr,hd,vl,hu: 10% 7% 17% 9% 12% 11% 11% 11% 13%
x264 [info]: i4 v,h,dc,ddl,ddr,vr,hd,vl,hu: 31% 6% 10% 7% 10% 10% 9% 8% 9%
x264 [info]: i8c dc,h,v,p: 44% 24% 17% 15%
x264 [info]: Weighted P-Frames: Y:4.2% UV:2.4%
x264 [info]: ref P L0: 45.7% 6.5% 20.9% 7.5% 6.3% 4.3% 4.1% 2.2% 2.2% 0.4% 0.0%
x264 [info]: ref B L0: 68.6% 14.5% 7.1% 3.7% 2.6% 2.1% 1.1% 0.3%
x264 [info]: ref B L1: 91.4% 8.6%
x264 [info]: kb/s:7995.35
x264 [info]: encoded 131713 frames, 1.59 fps, 7995.35 kb/s, duration 22:58:32.72

Скриншот c названием фильма

Скриншоты

Скачать

Скачать торрент!

Как скачивать? · Что такое торрент? · Рейтинг и ограничения

Сайт не распространяет и не хранит электронные версии произведений, а лишь предоставляет доступ к создаваемому пользователями каталогу ссылок на торрент-файлы, которые содержат только списки хеш-сумм

[Профиль] [ЛС]
Показать сообщения:    
Ответить на тему

Текущее время: Сегодня 23:53

Часовой пояс: GMT + 4



Вы не можете начинать темы
Вы не можете отвечать на сообщения
Вы не можете редактировать свои сообщения
Вы не можете удалять свои сообщения
Вы не можете голосовать в опросах
Вы не можете прикреплять файлы к сообщениям
Вы не можете скачивать файлы