Колесо судьбы / Sansar (Рама Рао Татинети / Rama Rao Tatineni) [1987, Индия, Mелодрама, DVDRip] MVO

Ответить на тему
 
Автор Сообщение

user ®

Стаж: 12 лет

Сообщений: 15092

Пост Пост: #1 от 27-Сен-2013 14:05

[Цитировать]

Колесо судьбы / Sansar
Страна: Индия
Жанр: Mелодрама
Год выпуска: 1987
Продолжительность: 02:24:41
Перевод: Профессиональный (многоголосый закадровый)
Cубтитры: нет
Режиссер: Рама Рао Татинети / Rama Rao Tatineni
В ролях: Рекха, Радж Баббар, Анупам Кхер, Аруна Ирани, Сима Део, Арчана Джоглекар, Приянка, Чандрашекхар, Шафи Инамдар, Шехар Суман
Описание: Ума, дочь Дил Дайял Шарма, типичного представителя среднего класса против воли родителей выходит замуж. Двое сыновей тоже не оправдывают надежд отца на учебу и работу. Как распутать этот сложный клубок личных взаимоотношений, обид и страсти?
Сэмпл: http://multi-up.com/907160
Качество видео: DVDRip
Формат видео: AVI
Видео: XviD build 50, 624x480 (1.30:1), 23.976 fps, 1306 kbps avg
Аудио: MPEG Layer 3, 48 kHz, 2/0 (L,R) ch, 128.00 kbps avg

MediaInfo

General
Complete name : D:\Sansar.1987.DVDRip-Dego.avi
Format : AVI
Format/Info : Audio Video Interleave
File size : 1.46 GiB
Duration : 2h 24mn
Overall bit rate : 1 444 Kbps
Writing application : VirtualDubMod 1.5.10.2 (build 2540/release)
Writing library : VirtualDubMod build 2540/release
Video
ID : 0
Format : MPEG-4 Visual
Format profile : AdvancedSimple@L5
Format settings, BVOP : Yes
Format settings, QPel : No
Format settings, GMC : No warppoints
Format settings, Matrix : Default (MPEG)
Codec ID : XVID
Codec ID/Hint : XviD
Duration : 2h 24mn
Bit rate : 1 307 Kbps
Width : 624 pixels
Height : 480 pixels
Display aspect ratio : 1.300
Frame rate : 23.976 fps
Resolution : 24 bits
Colorimetry : 4:2:0
Scan type : Progressive
Bits/(Pixel*Frame) : 0.182
Stream size : 1.32 GiB (90%)
Writing library : XviD 1.2.1 (UTC 2008-12-04)
Audio
ID : 1
Format : MPEG Audio
Format version : Version 1
Format profile : Layer 3
Codec ID : 55
Codec ID/Hint : MP3
Duration : 2h 24mn
Bit rate mode : Constant
Bit rate : 128 Kbps
Channel(s) : 2 channels
Sampling rate : 48.0 KHz
Resolution : 16 bits
Stream size : 132 MiB (9%)
Alignment : Aligned on interleaves
Interleave, duration : 42 ms (1.00 video frame)
Interleave, preload duration : 504 ms
Writing library : LAME3.98r
Encoding settings : -m s -V 4 -q 2 -lowpass 17 -b 128

Скриншоты

Скачать

Скачать торрент! Колесо судьбы / Sansar (Рама Рао Татинети / Rama Rao Tatineni) [1987, Индия, Mелодрама, DVDRip] MVO

Как скачивать? · Что такое торрент? · Рейтинг и ограничения

Сайт не распространяет и не хранит электронные версии произведений, а лишь предоставляет доступ к создаваемому пользователями каталогу ссылок на торрент-файлы, которые содержат только списки хеш-сумм

[Профиль] [ЛС]
Показать сообщения:    
Ответить на тему

Текущее время: Сегодня 01:34

Часовой пояс: GMT + 4



Вы не можете начинать темы
Вы не можете отвечать на сообщения
Вы не можете редактировать свои сообщения
Вы не можете удалять свои сообщения
Вы не можете голосовать в опросах
Вы не можете прикреплять файлы к сообщениям
Вы не можете скачивать файлы