Осторожно! Двери закрываются / Sliding Doors (Питер Хауит / Peter Howitt) [1998, Великобритания, США, мелодрама, BDRip 720p] Dub + MVO (R5 DVD СОЮЗ-видео) + MVO (R5 DVD Твистер) + Original Eng + Sub Rus, Eng

Ответить на тему
 
Автор Сообщение

user ®

Стаж: 7 лет 7 месяцев

Сообщений: 20008

Пост Пост: #1 от 27-Сен-2013 06:30

[Цитировать]

Осторожно! Двери закрываются / Sliding Doors
Страна: Великобритания, США
Жанр: мелодрама
Год выпуска: 1998
Продолжительность: 01:39:08
Перевод 1: Профессиональный (дублированный)
Перевод 2: Профессиональный (многоголосый закадровый) R5 DVD СОЮЗ-видео
Перевод 3: Профессиональный (многоголосый закадровый) R5 DVD Твистер
Cубтитры: русские, английские
Оригинальная аудиодорожка: английский
Режиссер: Питер Хауит / Peter Howitt
В ролях: Гвинет Пэлтроу, Джон Ханна, Джон Линч, Джинн Трипплхорн, Зара Тернер, Дуглас МакФерран, Пол Брайтвелл, Нина Янг, Вирджиния МакКенна, Кевин МакНэлли
Описание: Фильм, сюжет которого построен по логике "а что, если бы...?". Двери вагона в метро, через которые успела или не успела проскочить героиня, - это ключевая точка, в которой начинается то самое "если бы". Что было бы, если бы героиня не успела на поезд, если бы не приехала из-за этого с работы раньше и если бы не застала возлюбленного в постели с другой женщиной? В конце фильма... вы узнаете ответ на этот вопрос.
Сэмпл: http://yadi.sk/d/GkxwR4ic9xJc4
Тип релиза: BDRip 720p [url=http://***/forum/viewtopic.php?t=4212140](источник: BDRemux 1080p от Boevoy_Svintus)[/url]
Контейнер: MKV
Видео: AVC, 1280x720, 16:9, 23.976 fps, 6000 kbps
Аудио 1: RUS, AC3, 2.0, 48 kHz, 16 bit, 192 kbps (Дубляж)
Аудио 2: RUS, AC3, 5.1, 48 kHz, 16 bit, 448 kbps (MVO СОЮЗ-видео)
Аудио 3: RUS, AC3, 5.1, 48 kHz, 16 bit, 384 kbps (MVO Твистер)
Аудио 4: ENG, DTS, 5.1, 48 kHz, 16 bit, 1509 kbps
Формат субтитров: softsub (SRT)

MediaInfo

General
Unique ID : 227999913663793363564880742262126582210 (0xAB872FA487B604D2AA76AB440EEA99C2)
Complete name : Осторожно! Двери закрываются [1998] 720p.mkv
Format : Matroska
Format version : Version 4 / Version 2
File size : 5.91 GiB
Duration : 1h 39mn
Overall bit rate : 8 526 Kbps
Encoded date : UTC 2013-09-26 23:32:50
Writing application : mkvmerge v6.3.0 ('You can't stop me!') built on Jun 28 2013 20:09:41
Writing library : libebml v1.3.0 + libmatroska v1.4.0
Video
ID : 1
Format : AVC
Format/Info : Advanced Video Codec
Format profile : High@L4.1
Format settings, CABAC : Yes
Format settings, ReFrames : 9 frames
Codec ID : V_MPEG4/ISO/AVC
Duration : 1h 39mn
Bit rate : 6 000 Kbps
Width : 1 280 pixels
Height : 720 pixels
Display aspect ratio : 16:9
Frame rate mode : Constant
Frame rate : 23.976 fps
Color space : YUV
Chroma subsampling : 4:2:0
Bit depth : 8 bits
Scan type : Progressive
Bits/(Pixel*Frame) : 0.272
Stream size : 4.04 GiB (68%)
Writing library : x264 core 125 r2200bm 999b753
Encoding settings : cabac=1 / ref=9 / deblock=1:-1:-1 / analyse=0x3:0x133 / me=umh / subme=10 / psy=1 / psy_rd=1.00:0.15 / mixed_ref=1 / me_range=24 / chroma_me=1 / trellis=2 / 8x8dct=1 / cqm=0 / deadzone=21,11 / fast_pskip=1 / chroma_qp_offset=-3 / threads=12 / lookahead_threads=2 / sliced_threads=0 / nr=0 / decimate=1 / interlaced=0 / bluray_compat=0 / constrained_intra=0 / bframes=8 / b_pyramid=2 / b_adapt=2 / b_bias=0 / direct=3 / weightb=1 / open_gop=0 / weightp=2 / keyint=250 / keyint_min=23 / scenecut=40 / intra_refresh=0 / rc_lookahead=60 / rc=2pass / mbtree=1 / bitrate=6000 / ratetol=1.0 / qcomp=0.60 / qpmin=0 / qpmax=69 / qpstep=4 / cplxblur=20.0 / qblur=0.5 / ip_ratio=1.40 / aq=1:1.00
Language : English
Default : Yes
Forced : No
Audio #1
ID : 2
Format : AC-3
Format/Info : Audio Coding 3
Mode extension : CM (complete main)
Format settings, Endianness : Big
Codec ID : A_AC3
Duration : 1h 39mn
Bit rate mode : Constant
Bit rate : 192 Kbps
Channel(s) : 2 channels
Channel positions : Front: L R
Sampling rate : 48.0 KHz
Bit depth : 16 bits
Compression mode : Lossy
Stream size : 136 MiB (2%)
Title : Dub
Language : Russian
Default : Yes
Forced : No
Audio #2
ID : 3
Format : AC-3
Format/Info : Audio Coding 3
Mode extension : CM (complete main)
Format settings, Endianness : Big
Codec ID : A_AC3
Duration : 1h 39mn
Bit rate mode : Constant
Bit rate : 448 Kbps
Channel(s) : 6 channels
Channel positions : Front: L C R, Side: L R, LFE
Sampling rate : 48.0 KHz
Bit depth : 16 bits
Compression mode : Lossy
Stream size : 318 MiB (5%)
Title : MVO Soyuz
Language : Russian
Default : No
Forced : No
Audio #3
ID : 4
Format : AC-3
Format/Info : Audio Coding 3
Mode extension : CM (complete main)
Format settings, Endianness : Big
Codec ID : A_AC3
Duration : 1h 39mn
Bit rate mode : Constant
Bit rate : 384 Kbps
Channel(s) : 6 channels
Channel positions : Front: L C R, Side: L R, LFE
Sampling rate : 48.0 KHz
Bit depth : 16 bits
Compression mode : Lossy
Stream size : 272 MiB (5%)
Title : MVO Twister
Language : Russian
Default : No
Forced : No
Audio #4
ID : 5
Format : DTS
Format/Info : Digital Theater Systems
Mode : 16
Format settings, Endianness : Big
Codec ID : A_DTS
Duration : 1h 39mn
Bit rate mode : Constant
Bit rate : 1 509 Kbps
Channel(s) : 6 channels
Channel positions : Front: L C R, Side: L R, LFE
Sampling rate : 48.0 KHz
Bit depth : 16 bits
Compression mode : Lossy
Stream size : 1.05 GiB (18%)
Title : Original
Language : English
Default : No
Forced : No
Text #1
ID : 6
Format : UTF-8
Codec ID : S_TEXT/UTF8
Codec ID/Info : UTF-8 Plain Text
Language : Russian
Default : No
Forced : No
Text #2
ID : 7
Format : UTF-8
Codec ID : S_TEXT/UTF8
Codec ID/Info : UTF-8 Plain Text
Language : English
Default : No
Forced : No
Menu
00:00:00.000 : en:Chapter 1
00:04:44.534 : en:Chapter 2
00:10:36.803 : en:Chapter 3
00:14:42.465 : en:Chapter 4
00:19:03.518 : en:Chapter 5
00:26:33.718 : en:Chapter 6
00:32:35.662 : en:Chapter 7
00:37:30.206 : en:Chapter 8
00:43:12.799 : en:Chapter 9
00:47:05.155 : en:Chapter 10
00:50:37.993 : en:Chapter 11
00:54:45.032 : en:Chapter 12
01:00:57.571 : en:Chapter 13
01:04:59.855 : en:Chapter 14
01:13:33.367 : en:Chapter 15
01:19:54.164 : en:Chapter 16
01:24:46.290 : en:Chapter 17
01:27:49.306 : en:Chapter 18

Скриншот c названием фильма

Скачать

Скачать торрент!

Как скачивать? · Что такое торрент? · Рейтинг и ограничения

Сайт не распространяет и не хранит электронные версии произведений, а лишь предоставляет доступ к создаваемому пользователями каталогу ссылок на торрент-файлы, которые содержат только списки хеш-сумм

[Профиль] [ЛС]
Показать сообщения:    
Ответить на тему

Текущее время: Сегодня 12:52

Часовой пояс: GMT + 4



Вы не можете начинать темы
Вы не можете отвечать на сообщения
Вы не можете редактировать свои сообщения
Вы не можете удалять свои сообщения
Вы не можете голосовать в опросах
Вы не можете прикреплять файлы к сообщениям
Вы не можете скачивать файлы