Кровь искупления / Blood of Redemption (Джорджо Серафини / Giorgio Serafini, Шон Сургос / Shawn Sourgose) [2013, США, Боевик, триллер, драма, криминал, HDRip] MVO

Ответить на тему
 
Автор Сообщение

user ®

Стаж: 7 лет 7 месяцев

Сообщений: 20008

Пост Пост: #1 от 27-Сен-2013 00:10

[Цитировать]

Кровь искупления / Blood of Redemption
Страна: США / VMI Worldwide, High Five Films
Жанр: Боевик, триллер, драма, криминал
Год выпуска: 2013
Продолжительность: 01:25:10
Перевод: Любительский (многоголосый закадровый)
Cубтитры: нет
Оригинальная аудиодорожка: нет
Режиссер: Джорджо Серафини / Giorgio Serafini, Шон Сургос / Shawn Sourgose
В ролях: Дольф Лундгрен, Винни Джонс, Билли Зейн, Джанни Капальди, Роберт Дави, Роберт Миано, Масси Фурлан, ЛаДон Драммонд, Джелли Хоуи, Дженнифер Сайпс
Описание: Куинн Форте имел всё: власть, богатство, брата, боготворивший его, и женщину, которая очень любила его. Преданный кем-то из друзей, в одну ночь он теряет всё. Его отец — глава криминального клана убит, а брат считает, что это вина именно Куинна, который оказывается за решеткой. После освобождения из тюрьмы, герой объединяется со своим бывшим ставленником и близким другом и наносит врагам ответный удар.


Сэмпл: http://multi-up.com/907003
Качество видео: HDRip (Исх. BDRip 720p)
Формат видео: AVI
Видео: 656x368 (1.78:1), 23.976 fps, XviD build 50 ~1085 kbps avg, 0.19 bit/pixel
Аудио: 48 kHz, MPEG Layer 3, 2 ch, ~128.00 kbps avg

MediaInfo

Общее
Полное имя : S:\Фильмы\Кровь искупления. 2013. HDRip. (AleksSin).avi
Формат : AVI
Формат/Информация : Audio Video Interleave
Размер файла : 745 Мбайт
Продолжительность : 1 ч. 25 м.
Общий поток : 1222 Кбит/сек
Программа кодирования : VirtualDubMod 1.5.10.3 | www.virtualdub-fr.org || (build 2550/release)
Библиотека кодирования : VirtualDubMod build 2550/release
Видео
Идентификатор : 0
Формат : MPEG-4 Visual
Профиль формата : Advanced Simple@L5
Параметр BVOP формата : 2
Параметр QPel формата : Нет
Параметр GMC формата : Без точки перехода
Параметр матрицы формата : Default (H.263)
Идентификатор кодека : XVID
Идентификатор кодека/Подсказка : XviD
Продолжительность : 1 ч. 25 м.
Битрейт : 1085 Кбит/сек
Ширина : 656 пикс.
Высота : 368 пикс.
Соотношение сторон : 16:9
Частота кадров : 23,976 кадр/сек
Цветовое пространство : YUV
Подвыборка цветности : 4:2:0
Битовая глубина : 8 бит
Тип развёртки : Прогрессивная
Метод сжатия : С потерями
Бит/(Пиксели*Кадры) : 0.187
Размер потока : 661 Мбайт (89%)
Библиотека кодирования : XviD 1.2.1 (UTC 2008-12-04)
Аудио
Идентификатор : 1
Формат : MPEG Audio
Версия формата : Version 1
Профиль формата : Layer 3
Идентификатор кодека : 55
Идентификатор кодека/Подсказка : MP3
Продолжительность : 1 ч. 25 м.
Вид битрейта : Постоянный
Битрейт : 128 Кбит/сек
Каналы : 2 канала
Частота : 48,0 КГц
Метод сжатия : С потерями
Размер потока : 78,0 Мбайт (10%)
Выравнивание : Соединение по промежуткам
Продолжительность промежутка : 42 мс. (1,00 видеокадр)
Время предзагрузки промежутка : 504 ms
Библиотека кодирования : LAME3.99r
Настройки программы : -m s -V 4 -q 2 -lowpass 17 -b 128

Скриншот c названием фильма

Скриншоты

Скачать

Скачать торрент!

Как скачивать? · Что такое торрент? · Рейтинг и ограничения

Сайт не распространяет и не хранит электронные версии произведений, а лишь предоставляет доступ к создаваемому пользователями каталогу ссылок на торрент-файлы, которые содержат только списки хеш-сумм

[Профиль] [ЛС]
Показать сообщения:    
Ответить на тему

Текущее время: Сегодня 10:06

Часовой пояс: GMT + 4



Вы не можете начинать темы
Вы не можете отвечать на сообщения
Вы не можете редактировать свои сообщения
Вы не можете удалять свои сообщения
Вы не можете голосовать в опросах
Вы не можете прикреплять файлы к сообщениям
Вы не можете скачивать файлы