Перетасовка / Shuffle (Курт Кенни / Kurt Kuenne) [2011, США, Драма, WEB-DL 720p] MVO

Ответить на тему
 
Автор Сообщение

user ®

Стаж: 7 лет 7 месяцев

Сообщений: 20008

Пост Пост: #1 от 26-Сен-2013 16:10

[Цитировать]

Перетасовка / Shuffle
Страна: США
Жанр: Драма
Год выпуска: 2011
Продолжительность: 01:22:21
Перевод: Профессиональный (многоголосый закадровый)
Cубтитры: нет
Оригинальная аудиодорожка: английский
Режиссер: Курт Кенни / Kurt Kuenne
В ролях: Ти-Джей Тайн, Паула Родс, Крис Стоун, Меган Холавэй, Дилан Спрейберри, Эль Лабади, Мишель Крусик, Патриция Белчер, Тамара Тейлор, Коуди Эберкромби
Описание: Это история человека, который вдруг начинает жить не по порядку, каждый день он просыпается в разном возрасте, не зная, где и когда он окажется после очередного сна. Он испуган до смерти и хочет как-то это изменить. Вскоре он замечает некоторую зависимость и порядок в происходящем и пытается остановить кошмар, узнать кто в этом виновен…

Сэмпл: http://yadi.sk/d/bN0dYrZc9tVDq
Тип релиза: WEB-DL 720p
Контейнер: MKV
Видео: AVC/ 4 046 Kbps/ 1280x718/ 23.976 fps/
Аудио: Русский/AC-3, 2 channels/48.0 KHz/192 Kbps
Аудио 2: Английский/AC-3, 2 channels/48.0 KHz/192 Kbps

MediaInfo

Format : Matroska
Format version : Version 4 / Version 2
File size : 2.60 GiB
Duration : 1h 22mn
Overall bit rate : 4 520 Kbps
Encoded date : UTC 2013-09-22 19:16:00
Writing application : mkvmerge v6.4.1 ('Omega Point') built on Sep 16 2013 22:05:10
Writing library : libebml v1.3.0 + libmatroska v1.4.1
Video #1
ID : 1
Format : AVC
Format/Info : Advanced Video Codec
Format profile : High@L3.1
Format settings, CABAC : No
Format settings, ReFrames : 2 frames
Codec ID : V_MPEG4/ISO/AVC
Duration : 1h 22mn
Bit rate : 4 046 Kbps
Width : 1 280 pixels
Height : 718 pixels
Display aspect ratio : 16:9
Frame rate mode : Constant
Frame rate : 23.976 fps
Color space : YUV
Chroma subsampling : 4:2:0
Bit depth : 8 bits
Scan type : Progressive
Bits/(Pixel*Frame) : 0.184
Stream size : 2.33 GiB (90%)
Language : English
Default : Yes
Forced : No
Color primaries : BT.709
Transfer characteristics : BT.709
Matrix coefficients : BT.709
Audio #2
ID : 2
Format : AC-3
Format/Info : Audio Coding 3
Mode extension : CM (complete main)
Format settings, Endianness : Big
Codec ID : A_AC3
Duration : 1h 22mn
Bit rate mode : Constant
Bit rate : 192 Kbps
Channel(s) : 2 channels
Channel positions : Front: L R
Sampling rate : 48.0 KHz
Bit depth : 16 bits
Compression mode : Lossy
Stream size : 113 MiB (4%)
Title : online movies
Language : Russian
Default : Yes
Forced : Yes
Audio #3
ID : 3
Format : AC-3
Format/Info : Audio Coding 3
Mode extension : CM (complete main)
Format settings, Endianness : Big
Codec ID : A_AC3
Duration : 1h 22mn
Bit rate mode : Constant
Bit rate : 192 Kbps
Channel(s) : 2 channels
Channel positions : Front: L R
Sampling rate : 48.0 KHz
Bit depth : 16 bits
Compression mode : Lossy
Stream size : 113 MiB (4%)
Language : English
Default : No
Forced : No

Скриншоты

Скачать

Скачать торрент!

Как скачивать? · Что такое торрент? · Рейтинг и ограничения

Сайт не распространяет и не хранит электронные версии произведений, а лишь предоставляет доступ к создаваемому пользователями каталогу ссылок на торрент-файлы, которые содержат только списки хеш-сумм

[Профиль] [ЛС]

GARANOV

Стаж: 3 года 2 месяца

Сообщений: 5

Пост Пост: #2 от 27-Сен-2013 15:21 (спустя 23 часа)

[Цитировать]

Ещё раз спасибо за фильм,интерестный вдумчевый
[Профиль] [ЛС]

GARANOV

Стаж: 3 года 2 месяца

Сообщений: 5

Пост Пост: #3 от 09-Окт-2013 12:07 (спустя 11 дней)

[Цитировать]

user, здравствуйте,не знаю точто куда писать по этому пишу сюда,а где тут ратио смотреть сколько у меня только в профиле? Но там ведь и залатая раздача отмечвется,это там где отдача,я думал будет на главной отмечатся "ратио столько то"
[Профиль] [ЛС]
Показать сообщения:    
Ответить на тему

Текущее время: Сегодня 15:37

Часовой пояс: GMT + 4



Вы не можете начинать темы
Вы не можете отвечать на сообщения
Вы не можете редактировать свои сообщения
Вы не можете удалять свои сообщения
Вы не можете голосовать в опросах
Вы не можете прикреплять файлы к сообщениям
Вы не можете скачивать файлы