Восток / The East (Зал Батманглидж / Zal Batmanglij) [2013, США, Великобритания, триллер, BDRip 1080p] DVO + Original eng + Sub eng

Ответить на тему
 
Автор Сообщение

user ®

Стаж: 7 лет 7 месяцев

Сообщений: 20008

Пост Пост: #1 от 26-Сен-2013 16:10

[Цитировать]

Восток / The East
Страна: США, Великобритания
Жанр: триллер
Год выпуска: 2013
Продолжительность: 01:56:08
Перевод: Любительский (двухголосый закадровый)
Cубтитры: английски
Оригинальная аудиодорожка: английский
Режиссер: Зал Батманглидж / Zal Batmanglij
В ролях: Брит Марлинг, Александр Скарсгард, Эллен Пейдж, Тоби Кеббелл, Шайло Фернандес, Элдис Ходж, Даниэль МакДональд, Хиллари Бак, Патришия Кларксон, Джейсон Риттер
Описание: "Восток" - название группировки экотеррористов, пытающейся отомстить аморальным корпорациям. Представительница спецслужб получает задание проникнуть в группировку

Тип релиза: BDRip 1080p (от CHD) | sample
Контейнер: MKV
Видео кодек: x264
Видео: AVC 1920x816 (2.35:1), 23.976 fps, ~11.9 Mbps, 0.32 bit/pixel
Аудио #1: Russian AC3 6ch 48kHz 448Kbps | DVO
Аудио #2: English DTS 6ch 48kHz 1510Kbps | Original
Формат субтитров: softsub (SRT)
Главы: есть

MediaInfo | x264

x264

x264 [info]: frame I:1573 Avg QP:14.00 size:231010
x264 [info]: frame P:37917 Avg QP:16.14 size:102492
x264 [info]: frame B:127575 Avg QP:18.17 size: 47892
General
Complete name : E:\...\The.East.2013.1080p.BluRay.x264.Rus.Eng-CHD.mkv
Format : Matroska
Format version : Version 4 / Version 2
File size : 11.2 GiB
Duration : 1h 56mn
Overall bit rate : 13.9 Mbps
Movie name : The.East.2013.1080p.BluRay.x264.Rus.Eng-CHD
Encoded date : UTC 2013-09-26 05:23:40
Writing application : mkvmerge v6.2.0 ('Promised Land') built on Apr 28 2013 12:22:01
Writing library : libebml v1.3.0 + libmatroska v1.4.0
Video
ID : 1
Format : AVC
Format/Info : Advanced Video Codec
Format profile : High@L4.1
Format settings, CABAC : Yes
Format settings, ReFrames : 5 frames
Codec ID : V_MPEG4/ISO/AVC
Duration : 1h 56mn
Bit rate : 11.9 Mbps
Width : 1 920 pixels
Height : 816 pixels
Display aspect ratio : 2.35:1
Frame rate mode : Constant
Frame rate : 23.976 fps
Color space : YUV
Chroma subsampling : 4:2:0
Bit depth : 8 bits
Scan type : Progressive
Bits/(Pixel*Frame) : 0.317
Stream size : 9.43 GiB (84%)
Title : CHD
Writing library : x264 core 138 r2356 a1d3d17
Encoding settings : cabac=1 / ref=5 / deblock=1:-3:-3 / analyse=0x3:0x113 / me=umh / subme=10 / psy=1 / psy_rd=1.05:0.10 / mixed_ref=1 / me_range=32 / chroma_me=1 / trellis=2 / 8x8dct=1 / cqm=0 / deadzone=21,11 / fast_pskip=0 / chroma_qp_offset=-2 / threads=18 / lookahead_threads=1 / sliced_threads=0 / nr=0 / decimate=1 / interlaced=0 / bluray_compat=0 / constrained_intra=0 / bframes=6 / b_pyramid=2 / b_adapt=2 / b_bias=0 / direct=3 / weightb=1 / open_gop=0 / weightp=2 / keyint=250 / keyint_min=23 / scenecut=40 / intra_refresh=0 / rc=2pass / mbtree=0 / bitrate=11895 / ratetol=1.0 / qcomp=0.70 / qpmin=0 / qpmax=69 / qpstep=4 / cplxblur=20.0 / qblur=0.5 / ip_ratio=1.40 / pb_ratio=1.30 / aq=2:1.00
Language : English
Default : No
Forced : No
Audio #1
ID : 2
Format : AC-3
Format/Info : Audio Coding 3
Mode extension : CM (complete main)
Format settings, Endianness : Big
Codec ID : A_AC3
Duration : 1h 56mn
Bit rate mode : Constant
Bit rate : 448 Kbps
Channel(s) : 6 channels
Channel positions : Front: L C R, Side: L R, LFE
Sampling rate : 48.0 KHz
Bit depth : 16 bits
Compression mode : Lossy
Stream size : 372 MiB (3%)
Title : DVO
Language : Russian
Default : Yes
Forced : No
Audio #2
ID : 3
Format : DTS
Format/Info : Digital Theater Systems
Codec ID : A_DTS
Duration : 1h 56mn
Bit rate mode : Constant
Bit rate : 1 510 Kbps
Channel(s) : 6 channels
Channel positions : Front: L C R, Side: L R, LFE
Sampling rate : 48.0 KHz
Bit depth : 24 bits
Compression mode : Lossy
Stream size : 1.22 GiB (11%)
Title : Original
Language : English
Default : No
Forced : No
Text
ID : 4
Format : UTF-8
Codec ID : S_TEXT/UTF8
Codec ID/Info : UTF-8 Plain Text
Language : English
Default : No
Forced : No
Menu
00:00:00.000 : en:00:00:00.000
00:02:10.088 : en:00:02:10.088
00:06:41.568 : en:00:06:41.568
00:09:34.365 : en:00:09:34.365
00:12:00.553 : en:00:12:00.553
00:14:17.315 : en:00:14:17.315
00:18:11.924 : en:00:18:11.924
00:22:01.737 : en:00:22:01.737
00:26:29.254 : en:00:26:29.254
00:28:41.845 : en:00:28:41.845
00:31:14.873 : en:00:31:14.873
00:35:06.479 : en:00:35:06.479
00:39:20.358 : en:00:39:20.358
00:45:40.112 : en:00:45:40.112
00:47:18.753 : en:00:47:18.753
00:50:39.286 : en:00:50:39.286
00:52:36.904 : en:00:52:36.904
00:56:18.458 : en:00:56:18.458
01:00:59.698 : en:01:00:59.698
01:05:50.947 : en:01:05:50.947
01:10:32.603 : en:01:10:32.603
01:12:03.236 : en:01:12:03.236
01:14:40.267 : en:01:14:40.267
01:19:24.218 : en:01:19:24.218
01:23:11.862 : en:01:23:11.862
01:27:02.467 : en:01:27:02.467
01:29:36.580 : en:01:29:36.580
01:32:01.391 : en:01:32:01.391
01:35:03.698 : en:01:35:03.698
01:38:10.885 : en:01:38:10.885
01:40:42.745 : en:01:40:42.745
01:43:14.772 : en:01:43:14.772
01:45:04.590 : en:01:45:04.590
01:48:00.974 : en:01:48:00.974
01:49:59.718 : en:01:49:59.718
01:51:27.222 : en:01:51:27.222

Скриншоты



Скачать

Скачать торрент!

Как скачивать? · Что такое торрент? · Рейтинг и ограничения

Сайт не распространяет и не хранит электронные версии произведений, а лишь предоставляет доступ к создаваемому пользователями каталогу ссылок на торрент-файлы, которые содержат только списки хеш-сумм

[Профиль] [ЛС]
Показать сообщения:    
Ответить на тему

Текущее время: Сегодня 07:06

Часовой пояс: GMT + 4



Вы не можете начинать темы
Вы не можете отвечать на сообщения
Вы не можете редактировать свои сообщения
Вы не можете удалять свои сообщения
Вы не можете голосовать в опросах
Вы не можете прикреплять файлы к сообщениям
Вы не можете скачивать файлы