Конец света 2013: Апокалипсис по-голливудски / This Is the End (Сет Роген / Seth Rogen, Ивэн Голдберг / Evan Goldberg) [2013, США, комедия, фэнтези, BDRip-AVC] Dub (Чистый звук) + Sub (Rus, Eng) + Original (Eng)

Ответить на тему
 
Автор Сообщение

user ®

Стаж: 7 лет 7 месяцев

Сообщений: 20008

Пост Пост: #1 от 26-Сен-2013 13:00

[Цитировать]

Конец света 2013: Апокалипсис по-голливудски / This Is the End Страна: США
Жанр: комедия, фэнтези
Год выпуска: 2013
Продолжительность: 01:46:41
Перевод: Профессиональный (дублированный) Чистый звук
Cубтитры: русские (Воронин), английские
Оригинальная аудиодорожка: английская
Режиссер: Сет Роген / Seth Rogen, Ивэн Голдберг / Evan Goldberg
В ролях: Сет Роген / Seth Rogen, Ивэн Голдберг / Evan Goldberg
Описание: Джей Барушель приезжает в Лос-Анджелес, чтобы посетить старого друга и коллегу, актера Сета Рогена, который пригласил Барушеля на новоселье, которое организовывает Джеймс Франко. На не очень приличную вечеринку приехали многие знаменитости. Барушелю неудобно среди такого количества людей, он практически не знает лично таких знаменитостей, как: Джона Хилл, Кристофер Минц-Плассе, Майкл Сера, Крейг Робинсон, Эмма Уотсон и Ченнинг Татум. Роген, чтобы немного успокоить друга, сопровождает его в магазин за сигаретами.
В магазине лучи синего света с неба вдруг унесли несколько покупателей. Перепуганные Роген и Барушель бегут в дом Франко на фоне взрывов, автомобильных аварий, а также массового хаоса, но на вечеринке синие лучи никого не тронули. Подвыпившие гости не верят россказням Барушеля и объявляют его сумасшедшим, но через несколько секунд слышат снаружи грохот…

Качество видео: BDRip-AVC [Рип с This.Is.The.End.2013.1080p.BluRay.AVC.DTS-HD.MA.5.1-PublicHD]
Формат видео: MKV
Видео: х264, 1130x472 (2.40:1), 23.976 fps, 2032 Кbps, 0.159 bit/pixel
Аудио: 48 kHz, AC3 Dolby Digital, 2/0 (L,R) ch, ~320 kbps [rus]
Аудио 2: 48 kHz, AC3 Dolby Digital, 3/2 (L,C,R,l,r) + LFE ch, ~448 kbps [eng]
Формат субтитров: softsub (SRT)

x264@log

avs [info]: 1130x472p 1:1 @ 24000/1001 fps (cfr)
x264 [info]: using SAR=1/1
x264 [info]: using cpu capabilities: MMX2 SSE2Fast SSSE3 Cache64 SlowShuffle
x264 [info]: profile High, level 4.1
x264 [info]: frame I:1352 Avg QP:14.51 size: 62179
x264 [info]: frame P:37331 Avg QP:18.16 size: 20991
x264 [info]: frame B:114795 Avg QP:20.29 size: 6606
x264 [info]: consecutive B-frames: 2.9% 4.3% 11.5% 31.0% 17.8% 21.8% 4.4% 4.4% 0.7% 0.4% 0.3% 0.5%
x264 [info]: mb I I16..4: 11.2% 69.6% 19.2%
x264 [info]: mb P I16..4: 2.9% 11.2% 1.8% P16..4: 37.3% 22.7% 11.6% 0.0% 0.0% skip:12.5%
x264 [info]: mb B I16..4: 0.2% 0.8% 0.2% B16..8: 37.6% 10.4% 2.9% direct: 5.0% skip:42.9% L0:42.7% L1:44.6% BI:12.8%
x264 [info]: 8x8 transform intra:70.3% inter:65.3%
x264 [info]: direct mvs spatial:97.2% temporal:2.8%
x264 [info]: coded y,uvDC,uvAC intra: 74.1% 77.5% 56.2% inter: 19.3% 20.9% 9.0%
x264 [info]: i16 v,h,dc,p: 40% 15% 10% 35%
x264 [info]: i8 v,h,dc,ddl,ddr,vr,hd,vl,hu: 16% 10% 8% 8% 12% 12% 12% 11% 12%
x264 [info]: i4 v,h,dc,ddl,ddr,vr,hd,vl,hu: 14% 10% 5% 9% 14% 14% 13% 11% 12%
x264 [info]: i8c dc,h,v,p: 42% 22% 20% 16%
x264 [info]: Weighted P-Frames: Y:7.1% UV:4.6%
x264 [info]: ref P L0: 47.3% 8.7% 15.5% 6.5% 5.0% 3.9% 3.2% 1.9% 1.7% 1.5% 1.3% 1.2% 1.1% 1.1% 0.3% 0.0%
x264 [info]: ref B L0: 74.5% 10.6% 5.1% 2.6% 1.8% 1.4% 1.2% 0.7% 0.6% 0.6% 0.5% 0.3% 0.2%
x264 [info]: ref B L1: 93.1% 6.9%
x264 [info]: kb/s:2032.06
encoded 153478 frames, 2.00 fps, 2032.06 kb/s

MediaInfo

Complete name : This.Is.The.End.2013.x264.BDRip.AVC-ed_rez.mkv
Format : Matroska
Format version : Version 4 / Version 2
File size : 2.09 GiB
Duration : 1h 46mn
Overall bit rate : 2 802 Kbps
Movie name : This Is The End (2013) encoded by ed_rez
Encoded date : UTC 2013-09-26 06:18:36
Writing application : mkvmerge v6.4.1 ('Omega Point') built on Sep 16 2013 22:05:10
Writing library : libebml v1.3.0 + libmatroska v1.4.1
Video
ID : 1
Format : AVC
Format/Info : Advanced Video Codec
Format profile : High@L4.1
Format settings, CABAC : Yes
Format settings, ReFrames : 14 frames
Codec ID : V_MPEG4/ISO/AVC
Duration : 1h 46mn
Bit rate : 2 032 Kbps
Width : 1 130 pixels
Height : 472 pixels
Display aspect ratio : 2.40:1
Frame rate mode : Constant
Frame rate : 23.976 fps
Color space : YUV
Chroma subsampling : 4:2:0
Bit depth : 8 bits
Scan type : Progressive
Bits/(Pixel*Frame) : 0.159
Stream size : 1.47 GiB (71%)
Title : This Is The End (2013)
Writing library : x264 core 133 r2334 a3ac64b
Encoding settings : cabac=1 / ref=14 / deblock=1:-2:-1 / analyse=0x3:0x113 / me=umh / subme=10 / psy=1 / psy_rd=1.05:0.05 / mixed_ref=1 / me_range=32 / chroma_me=1 / trellis=2 / 8x8dct=1 / cqm=0 / deadzone=21,11 / fast_pskip=0 / chroma_qp_offset=-3 / threads=12 / lookahead_threads=3 / sliced_threads=0 / nr=0 / decimate=0 / interlaced=0 / bluray_compat=0 / constrained_intra=0 / bframes=11 / b_pyramid=2 / b_adapt=2 / b_bias=0 / direct=3 / weightb=1 / open_gop=0 / weightp=2 / keyint=240 / keyint_min=23 / scenecut=40 / intra_refresh=0 / rc_lookahead=80 / rc=2pass / mbtree=0 / bitrate=2032 / ratetol=1.0 / qcomp=0.70 / qpmin=0 / qpmax=69 / qpstep=4 / cplxblur=20.0 / qblur=0.5 / vbv_maxrate=24000 / vbv_bufsize=26000 / nal_hrd=none / ip_ratio=1.40 / pb_ratio=1.30 / aq=2:0.80
Language : English
Default : Yes
Forced : No
Color primaries : BT.709
Transfer characteristics : BT.709
Matrix coefficients : BT.709
Audio #1
ID : 2
Format : AC-3
Format/Info : Audio Coding 3
Mode extension : CM (complete main)
Format settings, Endianness : Big
Codec ID : A_AC3
Duration : 1h 46mn
Bit rate mode : Constant
Bit rate : 320 Kbps
Channel count : 2 channels
Channel positions : Front: L R
Sampling rate : 48.0 KHz
Bit depth : 16 bits
Compression mode : Lossy
Stream size : 244 MiB (11%)
Title : [DUB] AC3, 2 ch, 320 kbps
Language : Russian
Default : Yes
Forced : No
Audio #2
ID : 3
Format : AC-3
Format/Info : Audio Coding 3
Mode extension : CM (complete main)
Format settings, Endianness : Big
Codec ID : A_AC3
Duration : 1h 46mn
Bit rate mode : Constant
Bit rate : 448 Kbps
Channel count : 6 channels
Channel positions : Front: L C R, Side: L R, LFE
Sampling rate : 48.0 KHz
Bit depth : 16 bits
Compression mode : Lossy
Stream size : 342 MiB (16%)
Title : AC3, 6 ch, 448 kbps
Language : English
Default : No
Forced : No
Text #1
ID : 4
Format : UTF-8
Codec ID : S_TEXT/UTF8
Codec ID/Info : UTF-8 Plain Text
Title : Voronine
Language : Russian
Default : No
Forced : No
Text #2
ID : 5
Format : UTF-8
Codec ID : S_TEXT/UTF8
Codec ID/Info : UTF-8 Plain Text
Language : English
Default : No
Forced : No

Скриншоты

Скачать

Скачать торрент!

Как скачивать? · Что такое торрент? · Рейтинг и ограничения

Сайт не распространяет и не хранит электронные версии произведений, а лишь предоставляет доступ к создаваемому пользователями каталогу ссылок на торрент-файлы, которые содержат только списки хеш-сумм

[Профиль] [ЛС]
Показать сообщения:    
Ответить на тему

Текущее время: Сегодня 21:54

Часовой пояс: GMT + 4



Вы не можете начинать темы
Вы не можете отвечать на сообщения
Вы не можете редактировать свои сообщения
Вы не можете удалять свои сообщения
Вы не можете голосовать в опросах
Вы не можете прикреплять файлы к сообщениям
Вы не можете скачивать файлы