День памяти / Memorial Day (Сэмюэл Фишер / Samuel Fischer) [2011, США, боевик, драма, военный, история, BDRip 720p] MVO + 2xSub (Eng, Spa) + Original Eng

Ответить на тему
 
Автор Сообщение

user ®

Стаж: 7 лет 7 месяцев

Сообщений: 20008

Пост Пост: #1 от 26-Сен-2013 05:25

[Цитировать]

День памяти / Memorial Day
«Two generations. Two wars. One story.»
- Страна: США
Студия: Perspective Films
Жанр: боевик, драма, военный, история
Год выпуска: 2011
Продолжительность: 01:47:58
Перевод: Профессиональный (многоголосый закадровый) (студия Jaskier по заказу Creative Media)
Cубтитры: английские, испанские
Оригинальная аудиодорожка: английская
Режиссер: Сэмюэл Фишер / Samuel Fischer
В ролях: Джонатан Беннетт (SSGT. Kyle Vogel), Джеймс Кромуэлл (Bud Vogel), Джон Кромуэлл (Lieutenant Bud Vogel), Джексон Бонд (Young Kyle Vogel), Мэри Кэй Фортье-Спэлдинг (Betty Vogel), Эмили Фраденбург (Lt. Kelly Tripp), Чарльз Хаббелл (Cpt. Tom Marshall), Корби Келли (Derek Lodermeier), Крис ЛеФивер (Spc. Josh Berg), Люк Шуцле (Brandt), Джаспер Морган (Young German Soldier), Рид Зигмунд (Gorski), Thomas Sellwood (PFC Nick Sullivan), Эрин Трэкслер (Sarah Vogel), Армин Задех (Moises Aguilar), Макс Гонзалес (Zack Vogel), Рик Фриклунд (Donnelly), Scott Eiden (PFC. Travis Shane), Оливия Кун (Ruthie Vogel), Ной Кун (James Vogel), Крэйг Кристиансен (Ron Vogel), Sarvesh Anavkar (Insurgent 1), Анса Акиэа (Cpt. Glenn Larson), Аарон Курто (Frankie Califano), Шон Дули (Sgt. O'Hara), Фредрика Дьюкс (PFC Tyson), Джоэль Эдвардс (Lt. Col. John Winkler), Эрик Джон Пирсон (Insurgent 2), Abhinav Saihgal (Iraqi Civilian #1), Adam Simon (German Medic), Луис Джон Сория (Iraqi Civilian #31), Joshua Courteau, Пуннавит Кой
Описание: Во время игры в прятки маленький Кайл нашел сундук своего дедушки Бада, в котором хранились вещи, оставшиеся в память о войне. Бабушка посоветовала не показывать деду находку, потому что лежащие в сундуке вещи только разбередят старые раны и огорчат старика. Но, несмотря на ее запреты, Кайл все же решил показать сундук владельцу. Поначалу дедушка Бад не хотел открывать ящик, но внуку удалось уговорить его на небольшое одолжение в честь Дня поминовения: он выберет любые три предмета из шкатулки, а Бад расскажет три истории о войне…

Тип релиза: BDRip 720p [CHD]
Контейнер: MKV
Видео: 1280x720 (16:9), 23,976 fps, x264 ~4662 kbps avg, 0.212 bit/pixel
Аудио 1: 48 kHz, AC3 Dolby Digital, 2 ch, 192 kbps (русская)
Аудио 2: 48 kHz, Digital Theater Systems, 3/2 (L,C,R,l,r) + LFE ch, 1509 kbps (английская)
Формат субтитров: softsub (SRT)

рейтинг MPAA: лицам до 17 лет обязательно присутствие взрослого

MediaInfo

ОбщееУникальный идентификатор : 244420003212733668450871900354326461846 (0xB7E1948FD0FA073397D2ED1AB7727D96)Полное имя : \Memorial.Day.2011.BluRay.720p.DTS.x264.mkvФормат : MatroskaВерсия формата : Version 2Размер файла : 5,15 ГбайтПродолжительность : 1 ч. 53 м.Общий поток : 6493 Кбит/секДата кодирования : UTC 2013-09-25 16:50:41Программа кодирования : mkvmerge v4.5.0 ('Speed of Light') сборка от Feb 1 2011 02:10:32Библиотека кодирования : libebml v1.2.0 + libmatroska v1.1.0
ВидеоИдентификатор : 1Формат : AVCФормат/Информация : Advanced Video CodecПрофиль формата : High@L4.1Параметр CABAC формата : ДаПараметр ReFrames формата : 9 кадровИдентификатор кодека : V_MPEG4/ISO/AVCПродолжительность : 1 ч. 53 м.Битрейт : 4662 Кбит/секНоминальный битрейт : 5054 Кбит/секШирина : 1280 пикселейВысота : 720 пикселейСоотношение сторон : 16:9Режим частоты кадров : ПостоянныйЧастота кадров : 23,976 кадра/секЦветовое пространство : YUVСубдискретизация насыщенности : 4:2:0Битовая глубина : 8 битТип развёртки : ПрогрессивнаяБит/(Пиксели*Кадры) : 0.211Размер потока : 3,70 Гбайт (72%)Заголовок : Memorial.Day.2011.BluRay.720p.DTS.x264-CHDБиблиотека кодирования : x264 core 120 r2146 bcd41dbНастройки программы : cabac=1 / ref=9 / deblock=1:-3:-3 / analyse=0x3:0x113 / me=umh / subme=10 / psy=1psy_rd=1.10:0.15 / mixed_ref=1 / me_range=32 / chroma_me=1 / trellis=2 / 8x8dct=1 / cqm=0 / deadzone=21,11 / fast_pskip=0chroma_qp_offset=-2 / threads=12 / sliced_threads=0 / nr=0 / decimate=1 / interlaced=0 / bluray_compat=0 / constrained_intra=0bframes=6 / b_pyramid=2 / b_adapt=2 / b_bias=0 / direct=3 / weightb=1 / open_gop=0 / weightp=2 / keyint=250 / keyint_min=23scenecut=40 / intra_refresh=0 / rc_lookahead=60 / rc=2pass / mbtree=0 / bitrate=5054 / ratetol=1.0 / qcomp=0.60 / qpmin=0qpmax=69 / qpstep=4 / cplxblur=20.0 / qblur=0.5 / vbv_maxrate=40000 / vbv_bufsize=30000 / nal_hrd=none / ip_ratio=1.40pb_ratio=1.30 / aq=1:0.80Язык : EnglishDefault : ДаForced : Нет
Аудио #1Идентификатор : 2Формат : AC-3Формат/Информация : Audio Coding 3Расширение режима : CM (complete main)Параметр Endianness формата : BigИдентификатор кодека : A_AC3Продолжительность : 1 ч. 53 м.Вид битрейта : ПостоянныйБитрейт : 192 Кбит/секКаналы : 2 каналаРасположение каналов : Front: L RЧастота : 48,0 КГцБитовая глубина : 16 битМетод сжатия : С потерямиРазмер потока : 156 Мбайт (3%)Заголовок : ac3 2.0 192 kbpsЯзык : RussianDefault : ДаForced : Нет
Аудио #2Идентификатор : 3Формат : DTSФормат/Информация : Digital Theater SystemsРежим : 16Параметр Endianness формата : BigИдентификатор кодека : A_DTSПродолжительность : 1 ч. 53 м.Вид битрейта : ПостоянныйБитрейт : 1509 Кбит/секКаналы : 6 каналовРасположение каналов : Front: L C R, Side: L R, LFEЧастота : 48,0 КГцБитовая глубина : 24 битМетод сжатия : С потерямиРазмер потока : 1,20 Гбайт (23%)Заголовок : dts 5.1 1509 kbpsЯзык : EnglishDefault : НетForced : Нет
Текст #1Идентификатор : 4Формат : UTF-8Идентификатор кодека : S_TEXT/UTF8Идентификатор кодека/Информация : UTF-8 Plain TextЗаголовок : Sub-fullЯзык : EnglishDefault : НетForced : Нет
Текст #2Идентификатор : 5Формат : UTF-8Идентификатор кодека : S_TEXT/UTF8Идентификатор кодека/Информация : UTF-8 Plain TextЗаголовок : Sub-fullЯзык : SpanishDefault : НетForced : Нет

Видеоряд от CHD

±°°°°°°°°°°±°°°°°°°°°°°°°°°°°°°°°°°°°°°°°°°°°°°°°°°°°°°°°°°°°°°°°°°°°°°°°°°±±±±±°°°°°±°°°±°°°°°°°°°°°°°°°°°°°°°°°°°ЬЬ°°°?ЬЬ°°°°°°°°°°°°°°°°°°°°°°°°°°°°°°°°±±±±°°°°±І±°°°°°°°°°°°°°°°°°°°°°°°ЬЬІЫЫЫЫ°°°°°ЫЫЫЫІЬЬ°°°°°°°°°°°°°°°°°°°°°°°°°°°°±±±°±±ІІЫІІ±±°°°°°°°°°°°°°°ЬЬІ°ЬЫЫЫЫЫЫЫІ°°°°°ІЫЫЫЫЫЫЫЬ°ІЬЬ°°°°°°°°°°°°°°°°°°°°°°°±±°°°°±І±°°°°°°°°°°°°°°°ЬЫЫЫЫ°°ІЫЫЫЫЫЭ°°°°°°°ЫЫЫЫЫЫІ°°ЫЫЫЫЬ°°°°°°°°°°°°°°°°°°°°°°±°°°°°±°°°°°°°°°°°°°°°ЫЫЫЫЫЫЫ°°ЫЫЫЫЫЭ°°°°°°°ЫЫЫЫЫЫ°°ЫЫЫЫЫЫЫ°°°°°°°°°°°°°°°°°°°°°±°°°°°°°±°°°°°°°°°°°ЬЫЫЫЫЫЫЫЫІ°ЫЫЫЫЫЭ°°°°°°°ЫЫЫЫЫЫ°ІЫЫЫЫЫЫЫЫЬ°°°°°°°°°°°°°°°°°°°±°°°±°°°°°°°°°°°°°°°ЫЫЫЫЫЫЫЫЫЫ°ЫЫЫЫЫЭ°°°°°°°ЫЫЫЫЫЫ°ЫЫЫЫЫЫЫЫЫЫ°°°°°°°°°°°°°°°°°°°±°°°°°°°°°°°°°°°°°°ЫЫЫЫЫЯ°°ІЫЫ°°ЫЫЫЫЭ°°°°°°°ЫЫЫЫЫ°°ЫЫЫЫЭЯЫЫЫЫЫ°°°°°°°°°°°°°°°°°°±°°°°°°°°°°°°°°°°ІЫЫЫЫЯ°°°°°ЯЫІ°ЫЫЫЫЭ°°°°°°°ЫЫЫЫЫ°ЮЫЯЫЫЭ°°ЯЫЫЫЫІ°°°°°°°°°°°°°°°°±°°°°°°°°°°°°°°°°ЫЫЫЫ°°°°°°°°Я°°ІЫЫЫЭ°°°°°°°ЫЫЫЭІ°°ЯІЫЫЭ°°°°ЫЫЫЫ°°°°°°°°°°°°°°°°±°°°°°°°°°°°°°°°ІЫЫЫ°°°°°°°°°°°°°ЫЫЫЭ°°°°°°°ЫЫЫЭ°°°°±ЫЫЭ°°°°°ЫЫЫІ°°°°°°°°°°°°°°°±°°°°°°°°°°°°°°°ЫЫЫІ°°°°°°°°°°°°°ЫЫЫЫЬ°°°°°ЬЫЫЫЭ°°°°°ЫЫЭ°°°°°ІЫЫЫ°°°°°°°°°°°°°°°±°°°°°°°°°°°°°°ЫЫЫЭ°°°°°°°°°°°°°°ЫЫЫЫЫЫЫЫЫЫЫЫЫЫЭ°°°°°ЫЫЭ°°°°°°ЫЫЫЭ°°°°°°°°°°°°°°±°°°°°°°°°°°°°°ЫЫЫЭ°°°°°°°°°°°°°°ЫЫЫЫЫЫЫЫЫЫЫЫЫЫЭ°°°°°ЫЫЭ°°°°°°ЫЫЫЭ°°°°°°°°°°°°°°±°°°°°°°°°°°°°°ЫЫЫЭ°°°°°°°°°°°°°°ЫЫЫЫЫЯ°°°°ІЫЫЫЭ°°°°°ЫЫЭ°°°°°°ЫЫЫЭ°°°°°°°°°°°°°°±°°°°°°°°°°°°°°ЫЫЫЭ°°°°°°°°°°°°°°ЫЫЫЫІ°°°°°°ЫЫЫЭ°°°°°ЫЫЭ°°°°°°ЫЫЫЭ°°°°°°°±°°°°°°±°°°°°°°°°°°°°°ЫЫЫЭ°°°°°°°°°°°°°°ЫЫЫЭ°°°°°°°ЫЫЫЭ°°°°°ЫЫЭ°°°°°°ЫЫЫЭ°°°°±°°°°°°°°°±°°°°°°°°°°°°°°ІЫЫЫІ°°°°°°°°°°°°°ЫЫЫЭ°°°°°°°ЫЫЫЭ°°°°°ЫЫЭ°°°°°ІЫЫЫІ°°°°°°°±°°°°°°±°°°°°°°°°°°°°°°ЫЫЫЫІ°°°°°°°°°°°°ЫЫЫЭ°°°°°°°ЫЫЫЭ°°°°±ЫЫЭ°°°°ІЫЫЫЫ°°°°°°°°±°°°°°°±°°°°°°°°°°°°°°°°ЫЫЫЫЬ°°°°°°°Ь°°ІЫЫЫЫІ°°°°°ІЫЫЫЫІ°°ЬЮЫЫЭ°°°ЬЫЫЫЫ°°°°°°°°±І±°°°°°±°°°°°°°°°°°°°°°°ЯЫЫЫЫЫ°°°°°ЬЫІ°ЫЫЫЫЫЫ°°°°°ЫЫЫЫЫЫ°ЮЫЫЫЫЭ°°ЫЫЫЫЫЯ°°°°°±±ІІЫІІ±±°±±°°°°°°°°°°°°°°°°°ЯЫЫЫЫЫЬЬ°ЬЫЫ°°ЫЫЫЫЫЭ°°°°°ЫЫЫЫЫЫ°°ЫЫЫЫЭЬЫЫЫЫЫЯ°°°°°°°°°±І±°°°°°±°°°°°°°°°°°°°°°°°°ЯЫЫЫЫЫЫЫЫЫЫ°°ЫЫЫЫЫЭ°°°°°ЫЫЫЫЫЫ°°ЫЫЫЫЫЫЫЫЫЫЯ°°°°°°°°°°°±°°°°°°±°°°°°°°°°°°°°°°°°°°°ЫЫЫЫЫЫЫЫІ°ІЫЫЫЫЫЭ°°°°°ЫЫЫЫЫЫІ°ІЫЫЫЫЫЫЫЫ°°°°°°°°°°°°±°°°°°°°±°°°°°°°°°°°°°°°°°°°°°ІЫЫЫЫЫЫ°°ЫЫЫЫЫЫЭ°°°°°ЫЫЫЫЫЫЫ°°ЫЫЫЫЫЫЫ°°°°°°°°°°°°°°°°±°°°°±°°°°°°°°°°°°°°°°°°°°°°ЯЫЫЫЫ°°ІЫЫЫЫЫЫЭ°°°°°ЫЫЫЫЫЫЫІ°°ЫЫЫЫЯ°°°°°°°°°°°°±°°°°°°±°°±°°°°°°°°°°°°°°°°°°°°°°°°ЯЯІ°ЯЫЫЫЫЫЫЫЭ°°°°°ЫЫЫЫЫЫЫЫЯ°ІЯЯ°°°°°°°°°°°°°°°°°°°°°°°°±°°°°°°°°°°°°°°°°°°°°°°°°°°°°°°ЯЯЯЫЫЫЯ°°°°°ЯІЫЫЯЯЯ°°°°°°°°°°°°°°°°°°°°°°°°°°°°°°±°°°°°°°°°°°°°°°°°°°°°°°°°°°°°°°°°°°°°°°°°°°°°°°°°°°°°°°°°°°°°°°°°°°°°°°°°°°°°°°±°°°°±±±±±±±±±±±±±±±±±±±±±±±±±±±±±±±±±±±±±±±±±±±±±±±±±±±±±±±±±±±±±±±±±±±±±±±±±±±±°°°±±±±±±±±±±±±±±±±±±±±±±±±±Classic High Definition±±±±±±±±±±±±±±±±±±±±±±±±±±±±°°±±±±±±±±±±±±±±±±±±±±±±±±±±±±±±±±±±±±±±±±±±±±±±±±±±±±±±±±±±±±±±±±±±±±±±±±±±±±°±±±±±±±±±±±±±±±±±±±±±±±±±±±±±±Proudly Presents±±±±±±±±±±±±±±±±±±±±±±±±±±±±±±±±±±±±±±±±±±±±±±±±±±±±±±±±±±±±±±±±±±±±±±±±±±±±±±±±±±±±±±±±±±±±±±±±±±±±±±±±±±
Memorial.Day.2011.BluRay.720p.DTS.x264-CHD
°±°±°±°°°°°°°°°°°°°°°°°°°°°°°°°°°°°°°°°°°°°°°°°°°°°°°°°°°°°°°°°°°°°°°°°°°°°°°°?Memorial.Day.2011.BluRay.720p.DTS.x264-CHDRELEASE DATE....: 13/05/2012THEATRE DATE....: 2011iMDB URL........: http://www.imdb.com/title/tt1694118/iMDB RATiNG.....: 6.0/10GENRE...........: Action, Drama, FamilySOURCE .........: Memorial Day 2011 BluRay 1080p VC-1 DTS-HD MA5.1-CHDBitsViDEO BiTRATE...: x264 L4.1 High @ 5054 KbpsFRAME RATE......: 23.976 fpsAUDiO ..........: ENG DTS 5.1CH 1536KbpsRUNTiME.........: 01:47:58 (h:m:s)ASPECT RATiO....: 1.778 : 1RESOLUTiON......: 1280 X 720SUBTiTLES.......: N/AFilE SiZE.......: 5GENCODER.........: SweetSmile@CHD°°°°°°°°°°°°°°°°°°°°°°°°°°°°°°°°°°°°°°°°°°°°°°°°°°°°°°°°°°°°°°°°°°°°°°°°°°°°°°?x264 logx264 [info]: frame I:1464 Avg QP:15.37 size:124486x264 [info]: frame P:41019 Avg QP:16.94 size: 43359x264 [info]: frame B:112845 Avg QP:17.77 size: 18864

Скриншоты


Скачать

Скачать торрент!

Как скачивать? · Что такое торрент? · Рейтинг и ограничения

Сайт не распространяет и не хранит электронные версии произведений, а лишь предоставляет доступ к создаваемому пользователями каталогу ссылок на торрент-файлы, которые содержат только списки хеш-сумм

[Профиль] [ЛС]
Показать сообщения:    
Ответить на тему

Текущее время: Сегодня 12:12

Часовой пояс: GMT + 4



Вы не можете начинать темы
Вы не можете отвечать на сообщения
Вы не можете редактировать свои сообщения
Вы не можете удалять свои сообщения
Вы не можете голосовать в опросах
Вы не можете прикреплять файлы к сообщениям
Вы не можете скачивать файлы