Скрытый враг / Скрытые / Hidden, The (Джек Шолдер / Jack Sholder) [1987, США, Фантастика, боевик, криминал, WEB-DL 720p] AVO (Гаврилов) + DVO + Sub Eng + Original Eng

Ответить на тему
 
Автор Сообщение

user ®

Стаж: 7 лет 7 месяцев

Сообщений: 20008

Пост Пост: #1 от 26-Сен-2013 05:25

[Цитировать]

Скрытый враг / Скрытые / Hidden, The
Страна: США
Студия: New Line Cinema & Heron Communications, Inc.
Жанр: Ужасы, фантастика, боевик, криминал
Год выпуска: 1987
Продолжительность: 01:37:04
Перевод 1: Авторский (одноголосый закадровый) Андрей Гаврилов
Перевод 2: Профессиональный (двухголосый закадровый)
Cубтитры: английские
Оригинальная аудиодорожка: английский
Режиссер: Джек Шолдер / Jack Sholder
В ролях: Майкл Нури /Michael Nouri/, Кайл МакЛаклэн /Kyle MacLachlan/, Эд О'Росс /Ed O'Ross/, Клу Гулагер /Clu Gulager/, Клодиа Кристиан /Claudia Christian/, Кэтрин Кэннон /Catherine Cannon/, Билл Бойетт /Bill Boyett/, Клэренс Фелдер /Clarence Felder/, Ларри Сидар /Larry Cedar/, Ричард Брукс /Richard Brooks/
Описание: Страшноватый приключенческий фантастический фильм. Демонические внеземные существа завладевают телами невинных жертв и трансформируют их в паталогических убийц. В борьбу с ними вступает полицейский из Лос-Анджелеса (Нури). Ему помогает в этом агент ФБР (МакЛаклэн). (Иванов М.)
Альтернативное описание: Отдел по расследованию убийств не спит уже которую ночь: по городу катится волна необычных преступлений. Своеобразие их в том, что все преступники — вполне добропорядочные и законопослушные граждане, в которых будто бы сам черт вселился, заставляя их творить всяческие кошмарные, ненормальные вещи. У детектива Тома Бека, ведущего следствие по этому делу, просто голова кругом идет…
И уж, конечно же, меньше всего ему хочется оказывать всяческое содействие присланному сверху сотруднику ФБР Ллойду Гэллагеру, — человеку со странностями, логику которого понять, кажется, абсолютно невозможно. Но что если и вправду это дело рук инопланетян, вселяющихся в тела землян?"
--------------------------------------------------
Оператор: Жак Хэйткин /Jacques Haitkin/
Сценарист: Боб Хант /Bob Hunt/
Продюсер: Джералд Т. Олсон /Gerald T. Olson/, Роберт Шэй /Robert Shaye/, Майкл Мелтцер /Michael Meltzer/
Монтажер: Майкл Н. Нью /Michael N. Knue/
Композитор: Майкл Конвертино /Michael Convertino/
Художник: Мик Строун /Mick Strawn/, С. Дж. Строун /C. J. Strawn/
--------------------------------------------------
КИНОПОИСК. RU
РЕЙТИНГ 7.250 оценки: 916
6,9/10 from 9 250users
--------------------------------------------------
----------------
СЭМПЛ
--------------------------------------------------
Внимание: скорость маленькая - 50 Kb/s , но раздаю круглосуточно
--------------------------------------------------
Ещё Внимание: торрент перезалит 25-го сентября для коррекции английской дорожки
--------------------------------------------------
Тип релиза: WEB-DL 720p
Контейнер: MKV
Видео: 1280x700; 23.976 fps; ~ 3 834 Kbps; 0.178 Bits/Pixel
Аудио 1: Russian - 48 kHz, AC3 Dolby Digital, 2/0 (L,R) ch, ~ 192 kbps - Андрей Гаврилов
Аудио 2: Russian - 48 kHz, AC3 Dolby Digital, 2/0 (L,R) ch, ~192 kbps - DVO
Аудио 3: English - 48 kHz, AC3 Dolby Digital, 2/0 (L,R) ch, ~192 kbps - Original
Аудио 4: English - 48 kHz, AC3 Dolby Digital, 2/0 (L,R) ch, ~192 kbps - commentary
Формат субтитров: English (*ASS)

MediaInfo

General
Complete name : F:\EXCLUZIVE=19\СКРЫТЫЙ ВРАГ=HIDDEN, THE.1987\Hidden, The.1987\The.Hidden.1987.720p.WEB-DL.mkv
Format : Matroska
File size : 3.20 GiB
Duration : 1h 37mn
Overall bit rate : 4 713 Kbps
Encoded date : UTC 2013-09-24 08:14:35
Writing application : mkvmerge v3.3.0 ('Language') built on Mar 24 2010 14:59:24
Writing library : libebml v0.8.0 + libmatroska v0.9.0
Video
ID : 1
Format : AVC
Format/Info : Advanced Video Codec
Format profile : High@L3.1
Format settings, CABAC : No
Format settings, ReFrames : 2 frames
Format settings, GOP : M=2, N=32
Muxing mode : Container profile=Unknown@0.0
Codec ID : V_MPEG4/ISO/AVC
Duration : 1h 37mn
Bit rate : 3 851 Kbps
Width : 1 280 pixels
Height : 700 pixels
Display aspect ratio : 16:9
Frame rate : 23.976 fps
Color space : YUV
Chroma subsampling : 4:2:0
Bit depth : 8 bits
Scan type : Progressive
Bits/(Pixel*Frame) : 0.179
Stream size : 2.62 GiB (82%)
Title : The.Hidden.1987.
Language : English
Color primaries : BT.709-5, BT.1361, IEC 61966-2-4, SMPTE RP177
Transfer characteristics : BT.709-5, BT.1361
Matrix coefficients : BT.709-5, BT.1361, IEC 61966-2-4 709, SMPTE RP177
Audio #1
ID : 2
Format : AC-3
Format/Info : Audio Coding 3
Mode extension : CM (complete main)
Codec ID : A_AC3
Duration : 1h 37mn
Bit rate mode : Constant
Bit rate : 192 Kbps
Channel(s) : 2 channels
Channel positions : Front: L R
Sampling rate : 48.0 KHz
Stream size : 134 MiB (4%)
Title : AVO Гаврилов @ AC3 2 ch 192 kbps
Language : Russian
Audio #2
ID : 3
Format : AC-3
Format/Info : Audio Coding 3
Mode extension : CM (complete main)
Codec ID : A_AC3
Duration : 1h 37mn
Bit rate mode : Constant
Bit rate : 192 Kbps
Channel(s) : 2 channels
Channel positions : Front: L R
Sampling rate : 48.0 KHz
Stream size : 134 MiB (4%)
Title : MVO @ AC3 2 ch 192 kbps
Language : Russian
Audio #3
ID : 4
Format : AC-3
Format/Info : Audio Coding 3
Mode extension : CM (complete main)
Codec ID : A_AC3
Duration : 1h 37mn
Bit rate mode : Constant
Bit rate : 192 Kbps
Channel(s) : 2 channels
Channel positions : Front: L R
Sampling rate : 48.0 KHz
Stream size : 134 MiB (4%)
Title : Original @ AC3 2 ch 192 kbps
Language : English
Audio #4
ID : 5
Format : AC-3
Format/Info : Audio Coding 3
Mode extension : CM (complete main)
Codec ID : A_AC3
Duration : 1h 37mn
Bit rate mode : Constant
Bit rate : 192 Kbps
Channel(s) : 2 channels
Channel positions : Front: L R
Sampling rate : 48.0 KHz
Stream size : 134 MiB (4%)
Title : Web-DL @ AC3 2 ch 192 kbps commentary
Language : English
Text
ID : 6
Format : ASS
Codec ID : S_TEXT/ASS
Codec ID/Info : Advanced Sub Station Alpha
Title : (* ASS)
Language : English

Скриншоты

, ,
, ,
, ,
Скачать

Скачать торрент!

Как скачивать? · Что такое торрент? · Рейтинг и ограничения

Сайт не распространяет и не хранит электронные версии произведений, а лишь предоставляет доступ к создаваемому пользователями каталогу ссылок на торрент-файлы, которые содержат только списки хеш-сумм

[Профиль] [ЛС]
Показать сообщения:    
Ответить на тему

Текущее время: Сегодня 03:16

Часовой пояс: GMT + 4



Вы не можете начинать темы
Вы не можете отвечать на сообщения
Вы не можете редактировать свои сообщения
Вы не можете удалять свои сообщения
Вы не можете голосовать в опросах
Вы не можете прикреплять файлы к сообщениям
Вы не можете скачивать файлы