Гангстер-Шаман / Man On The Edge / Bak-soo-geon-dal / The Gangster Shaman (Чо Чин Гё / Jo Jin-kyoo) [2012, Южная Корея, криминал, драма, мистика, комедия, HDRip] DVO

Ответить на тему
 
Автор Сообщение

user ®

Стаж: 11 лет

Сообщений: 15151

Пост Пост: #1 от 26-Сен-2013 02:15

[Цитировать]

Гангстер-Шаман / Man On The Edge / Bak-soo-geon-dal / The Gangster Shaman
Год выпуска: 2012
Страна: Южная Корея
Жанр: криминал, драма, мистика, комедия
Продолжительность: 02:07:45
Озвучено: Любительский (двухголосый, закадровый) DeadSno & den904
Перевод: Skyworker
Работа со звуком: КОЛОБОК
Режиссёр: Чо Чин Гё / Jo Jin-kyoo
В ролях: Ким Чон Тхэ, Пак Син Ян, Ом Чжи Вон, Чхве Иль-Хва, Ким Хён-Бом, Пак Чжон-Ча...
Описание: Кто знает «что день грядущий нам готовит»?.. Судьба непредсказуема, а что, если «в мгновение ока» твоя жизнь кардинально поменяется? Двойная жизнь гангстера и шамана началась…

Релиз группы: &

Качество: HDRip
Формат: AVI
Видео кодек: Xvid
Аудио кодек: AC3
Видео: Xvid, 720x384 (1.88:1), 16:9, 29.970fps, 1330 kb/s, 0.161 bits/pixel
Аудио : AC3, 48 kHz, 2 channels, 192 kbps

Скриншоты

MI

Complete name                            : The Gangster Shaman.avi
Format                                   : AVI
Format/Info                              : Audio Video Interleave
File size                                : 1.37 GiB
Duration                                 : 2h 7mn
Overall bit rate                         : 1 530 Kbps
Writing application                      : VirtualDubModRus 1.5.10.2 (build 2542/release)
Writing library                          : VirtualDubMod build 2542/release
Video
ID                                       : 0
Format                                   : MPEG-4 Visual
Format profile                           : Advanced Simple@L5
Format settings, BVOP                    : 2
Format settings, QPel                    : No
Format settings, GMC                     : No warppoints
Format settings, Matrix                  : Default (H.263)
Codec ID                                 : XVID
Codec ID/Hint                            : XviD
Duration                                 : 2h 7mn
Bit rate                                 : 1 326 Kbps
Width                                    : 720 pixels
Height                                   : 384 pixels
Display aspect ratio                     : 1.85:1
Frame rate                               : 29.970 fps
Color space                              : YUV
Chroma subsampling                       : 4:2:0
Bit depth                                : 8 bits
Scan type                                : Progressive
Compression mode                         : Lossy
Bits/(Pixel*Frame)                       : 0.160
Stream size                              : 1.18 GiB (87%)
Writing library                          : XviD 1.2.1 (UTC 2008-12-04)
Audio
ID                                       : 1
Format                                   : AC-3
Format/Info                              : Audio Coding 3
Mode extension                           : CM (complete main)
Format settings, Endianness              : Big
Codec ID                                 : 2000
Duration                                 : 2h 7mn
Bit rate mode                            : Constant
Bit rate                                 : 192 Kbps
Channel(s)                               : 2 channels
Channel positions                        : Front: L R
Sampling rate                            : 48.0 KHz
Bit depth                                : 16 bits
Compression mode                         : Lossy
Stream size                              : 175 MiB (13%)
Alignment                                : Split accross interleaves
Interleave, duration                     : 33 ms (1.00 video frame)
Interleave, preload duration             : 500 ms
Скачать

Скачать торрент! Гангстер-Шаман / Man On The Edge / Bak-soo-geon-dal / The Gangster Shaman (Чо Чин Гё / Jo Jin-kyoo) [2012, Южная Корея, криминал, драма, мистика, комедия, HDRip] DVO

Как скачивать? · Что такое торрент? · Рейтинг и ограничения

Сайт не распространяет и не хранит электронные версии произведений, а лишь предоставляет доступ к создаваемому пользователями каталогу ссылок на торрент-файлы, которые содержат только списки хеш-сумм

[Профиль] [ЛС]
Показать сообщения:    
Ответить на тему

Текущее время: Сегодня 13:31

Часовой пояс: GMT + 4



Вы не можете начинать темы
Вы не можете отвечать на сообщения
Вы не можете редактировать свои сообщения
Вы не можете удалять свои сообщения
Вы не можете голосовать в опросах
Вы не можете прикреплять файлы к сообщениям
Вы не можете скачивать файлы