Протеже / Protege / Moon to (Тун-Шин Е / Tung-Shing Yee) [2007 г., Гонконг, триллер, драма, криминал, BDRip-AVC] DVO (BBC Saint-Petersburg)

Ответить на тему
 
Автор Сообщение

user ®

Стаж: 11 лет

Сообщений: 15151

Пост Пост: #1 от 26-Сен-2013 02:15

[Цитировать]

Протеже / Protege / Moon to
-Информация о фильме
Страна: Гонконг | Artforce International, Beijing Jinyinma Movie & TV Culture Co., Beijing Poly-bona Film Publishing Co. Ltd., China Film Group Corporation, Film Unlimited, Global Entertainment Group Co., Mediacorp Raintree Pictures
Жанр: триллер, драма, криминал
Год выпуска: 2007
Продолжительность: 01:48:50
Перевод: Профессиональный (двухголосый) [(BBC Saint-Petersburg)]
Субтитры: Отсутствуют
Режиссер: Тун-Шин Е
В ролях: Энди Лау, Дэниэл Ву, Луис Ку, Жинчу Чжан, Анита Юэнь, Кари Чи Лью, Юэнь Бо, Кристина Танг, Келли Вонг
О фильме:
Куин-хозяин маленького супермаркета, но это только ширма, за которой скрывается крупнейший наркодилер. У него две дочери и беременная жена, которая даже не подозревает о настоящих делах мужа. Ник - «протеже» Куина. Куин доверяет ему, но не разглашает никакой важной информации, что серьезно беспокоит Ника, так как его настоящая профессия - полицейский...-
Релиз: |
-Файл
Качество видео: BDRip (AVC) | BD-REMUX
Формат видео: MKV
Видео: 1024x432 (2.40:1), 23.976 fps, 2417 Кбит/сек, 0.228 bit/pixel
Аудио 1: 48 kHz, AC3 Dolby Digital, 3/2 (L,C,R,l,r) + LFE ch, ~448 kbps avg

MI

General
Unique ID : 186712080082167969157264023055867061362 (0x8C7770482629A89596CEAEE1B46C2472)
Complete name : D:\FILMS\My rips\Moon.to.2007.x264.BDRip.AVC.MediaClub.mkv
Format : Matroska
Format version : Version 4 / Version 2
File size : 2.18 GiB
Duration : 1h 48mn
Overall bit rate : 2 861 Kbps
Movie name : -=MediaClub.by Die_Roten=-
Encoded date : UTC 2013-09-25 12:17:34
Writing application : mkvmerge v6.3.0 ('You can't stop me!') built on Jun 28 2013 20:09:41
Writing library : libebml v1.3.0 + libmatroska v1.4.0
Video
ID : 1
Format : AVC
Format/Info : Advanced Video Codec
Format profile : High@L4.1
Format settings, CABAC : Yes
Format settings, ReFrames : 10 frames
Codec ID : V_MPEG4/ISO/AVC
Duration : 1h 48mn
Bit rate : 2 417 Kbps
Width : 1 024 pixels
Height : 432 pixels
Display aspect ratio : 2.40:1
Frame rate mode : Constant
Frame rate : 23.976 fps
Color space : YUV
Chroma subsampling : 4:2:0
Bit depth : 8 bits
Scan type : Progressive
Bits/(Pixel*Frame) : 0.228
Stream size : 1.79 GiB (82%)
Writing library : x264 core 133 r2334 a3ac64b
Encoding settings : cabac=1 / ref=10 / deblock=1:-3:-3 / analyse=0x3:0x133 / me=umh / subme=10 / psy=1 / psy_rd=1.00:0.10 / mixed_ref=1 / me_range=48 / chroma_me=1 / trellis=2 / 8x8dct=1 / cqm=0 / deadzone=21,11 / fast_pskip=0 / chroma_qp_offset=-3 / threads=6 / lookahead_threads=1 / sliced_threads=0 / nr=0 / decimate=1 / interlaced=0 / bluray_compat=0 / constrained_intra=0 / bframes=8 / b_pyramid=2 / b_adapt=2 / b_bias=0 / direct=3 / weightb=1 / open_gop=0 / weightp=2 / keyint=240 / keyint_min=22 / scenecut=40 / intra_refresh=0 / rc_lookahead=40 / rc=2pass / mbtree=0 / bitrate=2417 / ratetol=1.0 / qcomp=0.60 / qpmin=10 / qpmax=51 / qpstep=4 / cplxblur=20.0 / qblur=0.5 / vbv_maxrate=62500 / vbv_bufsize=78125 / nal_hrd=none / ip_ratio=1.40 / pb_ratio=1.30 / aq=1:1.00
Language : English
Default : Yes
Forced : No
Audio
ID : 2
Format : AC-3
Format/Info : Audio Coding 3
Mode extension : CM (complete main)
Format settings, Endianness : Big
Codec ID : A_AC3
Duration : 1h 48mn
Bit rate mode : Constant
Bit rate : 448 Kbps
Channel count : 6 channels
Channel positions : Front: L C R, Side: L R, LFE
Sampling rate : 48.0 KHz
Bit depth : 16 bits
Compression mode : Lossy
Stream size : 349 MiB (16%)
Title : DUB
Language : Russian
Default : Yes
Forced : No

Скриншоты


Скачать

Скачать торрент! Протеже / Protege / Moon to (Тун-Шин Е / Tung-Shing Yee) [2007 г., Гонконг, триллер, драма, криминал, BDRip-AVC] DVO (BBC Saint-Petersburg)

Как скачивать? · Что такое торрент? · Рейтинг и ограничения

Сайт не распространяет и не хранит электронные версии произведений, а лишь предоставляет доступ к создаваемому пользователями каталогу ссылок на торрент-файлы, которые содержат только списки хеш-сумм

[Профиль] [ЛС]
Показать сообщения:    
Ответить на тему

Текущее время: Сегодня 06:08

Часовой пояс: GMT + 4



Вы не можете начинать темы
Вы не можете отвечать на сообщения
Вы не можете редактировать свои сообщения
Вы не можете удалять свои сообщения
Вы не можете голосовать в опросах
Вы не можете прикреплять файлы к сообщениям
Вы не можете скачивать файлы