Особо опасны / Savages (Оливер Стоун / Oliver Stone) [2012, США, триллер, драма, криминал, BDRip 720p] [UNRATED] Dub + 2x AVO + VO + Original eng + Sub rus, eng

Ответить на тему
 
Автор Сообщение

user ®

Стаж: 7 лет 7 месяцев

Сообщений: 20008

Пост Пост: #1 от 26-Сен-2013 02:15

[Цитировать]

Особо опасны / Savages
Страна: США
Жанр: триллер, драма, криминал
Год выпуска: 2012
Продолжительность: 02:21:10
Перевод #1: Профессиональный (дублированный) | BD CEE
Перевод #2: Авторский (одноголосый закадровый), А. Гаврилов (отдельно)
Перевод #3: Авторский (одноголосый закадровый), Ю. Сербин (отдельно)
Перевод #4: Одногоголосый закадровый, А. Дасевич по переводу ak79, без цензуры (отдельно)
Cубтитры: русские, английские
Оригинальная аудиодорожка: английский
Режиссер: Оливер Стоун / Oliver Stone
В ролях: Тейлор Китч, Блейк Лайвли, Аарон Джонсон, Джон Траволта, Бенисио Дель Торо, Сальма Хайек, Яна Бенкер, Candra Docherty, Патрик Фоурми, Гари Стретч
Описание: Молодые миллионеры Бен и Чон ведут дела на побережье Калифорнии. Бен — выдающийся ботаник и талантливый бизнесмен, Чон — мастер возвращения долгов и борьбы с конкурентами. В их работе много сложных моментов, ведь они выращивают лучшую в мире траву. Особо серьезные проблемы решает знакомый агент ФБР
Но с одной не сможет помочь даже он. Сверхприбыльным бизнесом заинтересовался мексиканский картель. Его возглавляет прекрасная Елена, и она нашла главную слабость друзей - и Бен, и Чон принадлежат одной девушке. Ради прелестной О. они готовы на все. Любовь делает нас особо опасными...

Доп. информация: за дорогу Гаврилова благодарим меценатов с Пиратки, за Сербина - с E180 и HDCLUB, за Дасевича - с BLUEBIRD
Тип релиза: BDRip 720p (от CHD) | sample
Контейнер: MKV
Видео кодек: x264
Видео: AVC 1280x534 (2.40:1), 23.976 fps, ~6530 Kbps, 0.40 bit/pixel
Аудио #1: Russian DTS 6ch 48kHz 755Kbps | Dub BD CEE
Аудио #2: English AC3 6ch 48kHz 640Kbps | Original
Аудио #3: Russian AC3 6ch 48kHz 640Kbps | AVO Гаврилов (отдельным файлом)
Аудио #4: Russian AC3 6ch 48kHz 640Kbps | AVO Сербин (отдельным файлом)
Аудио #5: Russian AC3 6ch 48kHz 640Kbps | VO Дасевич (отдельным файлом)
Формат субтитров: softsub (SRT)
Главы: есть

MediaInfo

General
Complete name : E:\...\Savages.2012.UNRATED.720p.BluRay.x264.DD5.1.Rus.Eng-CHD.mkv
Format : Matroska
Format version : Version 4 / Version 2
File size : 7.83 GiB
Duration : 2h 21mn
Overall bit rate : 7 940 Kbps
Movie name : Savages.2012.UNRATED.720p.BluRay.x264.DD5.1.Rus.Eng-CHD
Encoded date : UTC 2013-09-21 06:56:45
Writing application : mkvmerge v6.2.0 ('Promised Land') built on Apr 28 2013 12:22:01
Writing library : libebml v1.3.0 + libmatroska v1.4.0
Video
ID : 1
Format : AVC
Format/Info : Advanced Video Codec
Format profile : High@L4.1
Format settings, CABAC : Yes
Format settings, ReFrames : 11 frames
Codec ID : V_MPEG4/ISO/AVC
Duration : 2h 21mn
Bit rate : 6 530 Kbps
Width : 1 280 pixels
Height : 534 pixels
Display aspect ratio : 2.40:1
Frame rate mode : Constant
Frame rate : 23.976 fps
Color space : YUV
Chroma subsampling : 4:2:0
Bit depth : 8 bits
Scan type : Progressive
Bits/(Pixel*Frame) : 0.398
Stream size : 6.30 GiB (80%)
Title : CHD
Writing library : x264 core 125 r2200+677M 3a754e7
Encoding settings : cabac=1 / ref=11 / deblock=1:-3:-3 / analyse=0x3:0x113 / me=umh / subme=11 / psy=1 / fade_compensate=0.00 / psy_rd=1.10:0.15 / mixed_ref=1 / me_range=32 / chroma_me=1 / trellis=2 / 8x8dct=1 / cqm=0 / deadzone=21,11 / fast_pskip=0 / chroma_qp_offset=-2 / threads=12 / lookahead_threads=2 / sliced_threads=0 / nr=0 / decimate=1 / interlaced=0 / bluray_compat=0 / constrained_intra=0 / fgo=0 / bframes=6 / b_pyramid=2 / b_adapt=2 / b_bias=0 / direct=3 / weightb=1 / open_gop=0 / weightp=2 / keyint=250 / keyint_min=23 / scenecut=40 / intra_refresh=0 / rc_lookahead=40 / rc=2pass / mbtree=0 / bitrate=6530 / ratetol=1.0 / qcomp=0.60 / qpmin=0 / qpmax=69 / qpstep=4 / cplxblur=20.0 / qblur=0.5 / vbv_maxrate=40000 / vbv_bufsize=30000 / nal_hrd=none / ip_ratio=1.40 / pb_ratio=1.30 / aq=1:0.80
Language : English
Default : No
Forced : No
Audio #1
ID : 2
Format : DTS
Format/Info : Digital Theater Systems
Codec ID : A_DTS
Duration : 2h 21mn
Bit rate mode : Constant
Bit rate : 755 Kbps
Channel(s) : 6 channels
Channel positions : Front: L C R, Side: L R, LFE
Sampling rate : 48.0 KHz
Bit depth : 24 bits
Compression mode : Lossy
Stream size : 762 MiB (10%)
Title : Dub
Language : Russian
Default : Yes
Forced : No
Audio #2
ID : 3
Format : AC-3
Format/Info : Audio Coding 3
Mode extension : CM (complete main)
Format settings, Endianness : Big
Codec ID : A_AC3
Duration : 2h 21mn
Bit rate mode : Constant
Bit rate : 640 Kbps
Channel(s) : 6 channels
Channel positions : Front: L C R, Side: L R, LFE
Sampling rate : 48.0 KHz
Bit depth : 16 bits
Compression mode : Lossy
Stream size : 646 MiB (8%)
Title : Original
Language : English
Default : No
Forced : No
Text #1
ID : 4
Format : UTF-8
Codec ID : S_TEXT/UTF8
Codec ID/Info : UTF-8 Plain Text
Title : Forced
Language : Russian
Default : Yes
Forced : No
Text #2
ID : 5
Format : UTF-8
Codec ID : S_TEXT/UTF8
Codec ID/Info : UTF-8 Plain Text
Language : Russian
Default : No
Forced : No
Text #3
ID : 6
Format : UTF-8
Codec ID : S_TEXT/UTF8
Codec ID/Info : UTF-8 Plain Text
Title : SDH
Language : English
Default : No
Forced : No
Text #4
ID : 7
Format : UTF-8
Codec ID : S_TEXT/UTF8
Codec ID/Info : UTF-8 Plain Text
Language : English
Default : No
Forced : No
Menu
00:00:00.000 : en:Chapter 00
00:06:42.152 : en:Chapter 01
...
02:16:49.910 : en:Chapter 19
Скачать

Скачать торрент!

Как скачивать? · Что такое торрент? · Рейтинг и ограничения

Сайт не распространяет и не хранит электронные версии произведений, а лишь предоставляет доступ к создаваемому пользователями каталогу ссылок на торрент-файлы, которые содержат только списки хеш-сумм

[Профиль] [ЛС]
Показать сообщения:    
Ответить на тему

Текущее время: Сегодня 15:51

Часовой пояс: GMT + 4



Вы не можете начинать темы
Вы не можете отвечать на сообщения
Вы не можете редактировать свои сообщения
Вы не можете удалять свои сообщения
Вы не можете голосовать в опросах
Вы не можете прикреплять файлы к сообщениям
Вы не можете скачивать файлы