Доктор Айболит (Давид Черкасский) [1984-1985 гг, мультфильм, анимация, DVB]

Ответить на тему
 
Автор Сообщение

user ®

Стаж: 7 лет 7 месяцев

Сообщений: 20008

Пост Пост: #1 от 25-Сен-2013 19:55

[Цитировать]

Доктор Айболит
Жанр: мультфильм, анимация
Год выпуска: 1984-1985
Продолжительность: 01:08:18
Режиссёр: Давид Черкасский
Описание: Доктор Айболит вместе со своими друзьями-животными переживает самые невероятные приключения. Озорной, веселый мультипликационный сериал, с пиратами и погонями, песнями и танцами ...
1. "Доктор Айболит и его звери. 1 серия" 1984г
2. "Бармалей и морские пираты. 2 серия" 1984г.
3. "Варвара – злая сестра Айболита. 3 серия" 1984г.
4. "Коварный план Бармалея. 4 серия" 1985г.
5. "Айболит спешит на помощь. 5 серия" 1985г.
6. "Крокодил и солнце. 6 серия" 1985г.
7. "Спасибо, доктор! 7 серия" 1985г.
Доп. информация: мультильм снят по мотивам произведений Корнея Чуковского

Качество видео: DVB
Формат видео: MPEG-PS
Видео: MPEG2 Video, 720x576, 25 fps, 3500 kbps
Аудио: MPEG Audio, 2 сh, 48 kHz, 192 kbps
Трансляция спутникового канала: "Карусель"

MediaInfo

D:\Доктор Айболит\01. Доктор Айболит и его звери. (1984)_DVB by SLuMeP.mpg
General
Complete name : D:\Доктор Айболит\01. Доктор Айболит и его звери. (1984)_DVB by SLuMeP.mpg
Format : MPEG-PS
File size : 257 MiB
Duration : 9mn 39s
Overall bit rate mode : Variable
Overall bit rate : 3 725 Kbps
Writing library : (c) 1998-2010 Womble Multimedia, Inc. / MPEG Video Wizard DVD 5.0.0.114 (01/2010) / Apr 20 2010
Video #224
ID : 224 (0xE0)
Format : MPEG Video
Format version : Version 2
Format profile : Main@Main
Format settings, BVOP : Yes
Format settings, Matrix : Custom
Format settings, GOP : M=3, N=12
Duration : 9mn 39s
Bit rate mode : Variable
Bit rate : 3 459 Kbps
Maximum bit rate : 5 000 Kbps
Width : 720 pixels
Height : 576 pixels
Display aspect ratio : 4:3
Frame rate : 25.000 fps
Standard : PAL
Color space : YUV
Chroma subsampling : 4:2:0
Bit depth : 8 bits
Scan type : Interlaced
Scan order : Top Field First
Compression mode : Lossy
Bits/(Pixel*Frame) : 0.334
Stream size : 239 MiB (93%)
Writing library : (c) 1998-2010 Womble Multimedia, Inc. / MPEG Video Wizard DVD 5.0.0.114 (01/2010) / Apr 20 2010
Audio #192
ID : 192 (0xC0)
Format : MPEG Audio
Format version : Version 1
Format profile : Layer 2
Duration : 9mn 39s
Bit rate mode : Constant
Bit rate : 192 Kbps
Channel(s) : 2 channels
Sampling rate : 48.0 KHz
Compression mode : Lossy
Stream size : 13.3 MiB (5%)
Menu

Скриншоты

Скачать

Скачать торрент!

Как скачивать? · Что такое торрент? · Рейтинг и ограничения

Сайт не распространяет и не хранит электронные версии произведений, а лишь предоставляет доступ к создаваемому пользователями каталогу ссылок на торрент-файлы, которые содержат только списки хеш-сумм

[Профиль] [ЛС]
Показать сообщения:    
Ответить на тему

Текущее время: Сегодня 08:24

Часовой пояс: GMT + 4



Вы не можете начинать темы
Вы не можете отвечать на сообщения
Вы не можете редактировать свои сообщения
Вы не можете удалять свои сообщения
Вы не можете голосовать в опросах
Вы не можете прикреплять файлы к сообщениям
Вы не можете скачивать файлы