Баран и роза (Калью Курепыльд) [1982, кукольный, для взрослых, TeleSynch]

Ответить на тему
 
Автор Сообщение

user ®

Стаж: 7 лет 7 месяцев

Сообщений: 20008

Пост Пост: #1 от 25-Сен-2013 19:55

[Цитировать]

Баран и роза
Страна: СССР
Студия: Таллинфильм
Жанр: кукольный, для взрослых
Продолжительность: 00:07:03
Год выпуска: 1982
Перевод: Не требуется
Русские субтитры: нет
Режиссёр: Калью Курепыльд
Описание: Сатирический кукольный фильм для взрослых состоит из двух сюжетов.
"Пикник"- Рассказывает о весёлой пирушке зверей в ...квартире, которую они оставили в безобразном состоянии, подобно некоторым отдыхающим на природе людям.
"Вкус"- о разном отношении к распустившейся розе. Пёс просыпается от её аромата, петух удивлённо кукарекает, свинья отворачивается, а баран пожирает стебель и листья розы.
(Информация взята из каталога кинофильмов 1983 года)
Доп. информация: Фильм оцифрован с киноплёнки 35-мм, из личной коллекции ENKVANT
Качество: TeleSynch
Формат: MPG
Видео: 720x480 (4:3) @ 640x480, 29.970 fps, MPEG-2 Video, ~6388 Kbps, 0.617 bits/pixel
Аудио: 48.0 KHz, AC3, 1 ch, 192 Kbps
Субтитры: отсутствуют

MediaInfo

GeneralComplete name : Баран и роза (Таллинфильм) 1982.mpgFormat : MPEG-PSFile size : 339 MiBDuration : 7mn 3sOverall bit rate mode : VariableOverall bit rate : 6 714 Kbps
VideoID : 224 (0xE0)Format : MPEG VideoFormat version : Version 2Format profile : Main@MainFormat settings, BVOP : YesFormat settings, Matrix : CustomFormat settings, GOP : VariableDuration : 7mn 3sBit rate mode : VariableBit rate : 6 388 KbpsMaximum bit rate : 9 586 KbpsWidth : 720 pixelsHeight : 480 pixelsDisplay aspect ratio : 4:3Frame rate : 29.970 fpsStandard : NTSCColor space : YUVChroma subsampling : 4:2:0Bit depth : 8 bitsScan type : InterlacedScan order : Bottom Field FirstCompression mode : LossyBits/(Pixel*Frame) : 0.617Time code of first frame : 00:00:00;00Time code source : Group of pictures headerStream size : 323 MiB (95%)
AudioID : 189 (0xBD)-128 (0x80)Format : AC-3Format/Info : Audio Coding 3Mode extension : CM (complete main)Format settings, Endianness : BigMuxing mode : DVD-VideoDuration : 7mn 3sBit rate mode : ConstantBit rate : 192 KbpsChannel(s) : 1 channelChannel positions : Front: CSampling rate : 48.0 KHzBit depth : 16 bitsCompression mode : LossyStream size : 9.70 MiB (3%)

Скриншоты

Скачать

Скачать торрент!

Как скачивать? · Что такое торрент? · Рейтинг и ограничения

Сайт не распространяет и не хранит электронные версии произведений, а лишь предоставляет доступ к создаваемому пользователями каталогу ссылок на торрент-файлы, которые содержат только списки хеш-сумм

[Профиль] [ЛС]
Показать сообщения:    
Ответить на тему

Текущее время: Сегодня 12:31

Часовой пояс: GMT + 4



Вы не можете начинать темы
Вы не можете отвечать на сообщения
Вы не можете редактировать свои сообщения
Вы не можете удалять свои сообщения
Вы не можете голосовать в опросах
Вы не можете прикреплять файлы к сообщениям
Вы не можете скачивать файлы