В компании волков / The Company of Wolves (Нил Джордан / Neil Jordan) [1984, Великобритания, ужасы, фэнтези, BDRip 1080p] MVO + AVO (А. Гаврилов) + Original (Eng) + Sub (Rus, Eng)

Ответить на тему
 
Автор Сообщение

user ®

Стаж: 7 лет 7 месяцев

Сообщений: 20008

Пост Пост: #1 от 25-Сен-2013 19:55

[Цитировать]

В компании волков / The Company of Wolves«Where fairy stories meet horror stories»- Страна: Великобритания
Студия: Incorporated Television Company, Palace Pictures
Жанр: ужасы, фэнтези
Год выпуска: 1984
Продолжительность: 01:35:18-Перевод 1: Профессиональный (многоголосый закадровый)
Перевод 2: Авторский (одноголосый закадровый) (А. Гаврилов)
Оригинальная аудиодорожка: английский
Cубтитры: русские, английские-Режиссер: Нил Джордан / Neil Jordan
В ролях: Сара Пэттерсон, Анджела Лэнсбери, Дэвид Уорнер, Туссе Сильберг, Миша Бергезе, Брайан Гловер, Грэм Кроуден, Кэтрин Погсон, Стивен Ри, Джорджия Слоу и другие-Описание: Героиня фильма, юная Розалин, живёт в современной Англии в загородном доме с родителями и сестрой Алисой. В интродукции Розалин крепко засыпает и видит сны, которые составляют основное действие фильма. Розалин снится, что её семья живёт в деревне посреди сказочного леса, где водятся волки. Первый сюрреалистический сон Розалин сплавлен с реальностью. В видениях Розалин сестра-обидчица попадает в место между явью и сном, где оживают чудесным образом выросшие до огромных размеров старые игрушки, и где на неё нападает стая волков. В сказочном мире сна, убитую волками сестру хоронят, а Розалин ненадолго отправляют к бабушке, которая дарит девушке красный плащ с капюшоном.
Вместе с подарком бабушка даёт внучке совет, остерегаться волков и незнакомцев, рассказывая при этом, поучительную историю о женщине, которая вышла замуж за оборотня. Рассказ и подарок бабушки служат своего рода спусковым крючком: Розалин превращается в Красную Шапочку в мире волков.- -Тип релиза: BDRip 1080p
Релиз от: mediaclub, Painter
Контейнер: MKV
Видео: MPEG-4 AVC, 10800 Кбит/с, 1920x1080, 23.976 кадр/с
Аудио 1: Russian: 48 kHz, AC3, 3/2 (L,C,R,l,r) + LFE ch, ~448.00 kbps avg (6ch) MVO
Аудио 2: Russian: 48 kHz, AC3, 2/0 (L,R) ch, ~192 kbps (2ch) AVO (А. Гаврилов)
Аудио 3: English: 48 kHz, AC3, 3/2 (L,C,R,l,r) + LFE ch, ~448.00 kbps avg (6ch)
Субтитры: Русские, английские
-

MediaInfo

Формат : Matroska
Версия формата : Version 2
Размер файла : 7,91 Гбайт
Продолжительность : 1 ч. 35 м.
Общий поток : 11,9 Мбит/сек
Дата кодирования : UTC 2013-04-01 21:46:34
Программа кодирования : mkvmerge v5.4.0 ('Piper') built on Mar 10 2012 13:34:39
Библиотека кодирования : libebml v1.2.3 + libmatroska v1.3.0
Видео
Идентификатор : 1
Формат : AVC
Формат/Информация : Advanced Video Codec
Профиль формата : High@L4.1
Параметр CABAC формата : Да
Параметр ReFrames формата : 4 кадра
Идентификатор кодека : V_MPEG4/ISO/AVC
Продолжительность : 1 ч. 35 м.
Битрейт : 10,8 Мбит/сек
Ширина : 1920 пикселей
Высота : 1080 пикселей
Соотношение сторон : 16:9
Режим частоты кадров : Постоянный
Частота кадров : 23,976 кадра/сек
Цветовое пространство : YUV
Субдискретизация насыщенности : 4:2:0
Битовая глубина : 8 бит
Тип развёртки : Прогрессивная
Бит/(Пиксели*Кадры) : 0.217
Размер потока : 7,03 Гбайт (89%)
Библиотека кодирования : x264 core 125 r2208 d9d2288
Настройки программы : cabac=1 / ref=4 / deblock=1:-2:-2 / analyse=0x3:0x133 / me=umh / subme=10 / psy=1 / psy_rd=1.00:0.25 / mixed_ref=1 / me_range=32 / chroma_me=1 / trellis=2 / 8x8dct=1 / cqm=0 / deadzone=21,11 / fast_pskip=0 / chroma_qp_offset=-4 / threads=6 / lookahead_threads=1 / sliced_threads=0 / nr=0 / decimate=0 / interlaced=0 / bluray_compat=0 / constrained_intra=0 / bframes=7 / b_pyramid=2 / b_adapt=2 / b_bias=0 / direct=3 / weightb=1 / open_gop=0 / weightp=2 / keyint=240 / keyint_min=23 / scenecut=40 / intra_refresh=0 / rc=2pass / mbtree=0 / bitrate=10800 / ratetol=1.0 / qcomp=0.60 / qpmin=0 / qpmax=69 / qpstep=4 / cplxblur=20.0 / qblur=0.5 / ip_ratio=1.40 / pb_ratio=1.30 / aq=1:1.00
Язык : English
Default : Да
Forced : Нет
Аудио #1
Идентификатор : 2
Формат : AC-3
Формат/Информация : Audio Coding 3
Расширение режима : CM (complete main)
Параметр Endianness формата : Big
Идентификатор кодека : A_AC3
Продолжительность : 1 ч. 35 м.
Вид битрейта : Постоянный
Битрейт : 448 Кбит/сек
Каналы : 6 каналов
Расположение каналов : Front: L C R, Side: L R, LFE
Частота : 48,0 КГц
Битовая глубина : 16 бит
Метод сжатия : С потерями
Размер потока : 305 Мбайт (4%)
Заголовок : Многоголосый
Язык : Russian
Default : Да
Forced : Нет
Аудио #2
Идентификатор : 3
Формат : AC-3
Формат/Информация : Audio Coding 3
Расширение режима : CM (complete main)
Параметр Endianness формата : Big
Идентификатор кодека : A_AC3
Продолжительность : 1 ч. 35 м.
Вид битрейта : Постоянный
Битрейт : 192 Кбит/сек
Каналы : 2 канала
Расположение каналов : Front: L R
Частота : 48,0 КГц
Битовая глубина : 16 бит
Метод сжатия : С потерями
Размер потока : 131 Мбайт (2%)
Заголовок : Гаврилов
Язык : Russian
Default : Нет
Forced : Нет
Аудио #3
Идентификатор : 4
Формат : AC-3
Формат/Информация : Audio Coding 3
Расширение режима : CM (complete main)
Параметр Endianness формата : Big
Идентификатор кодека : A_AC3
Продолжительность : 1 ч. 35 м.
Вид битрейта : Постоянный
Битрейт : 448 Кбит/сек
Каналы : 6 каналов
Расположение каналов : Front: L C R, Side: L R, LFE
Частота : 48,0 КГц
Битовая глубина : 16 бит
Метод сжатия : С потерями
Размер потока : 305 Мбайт (4%)
Язык : English
Default : Нет
Forced : Нет
Текст #1
Идентификатор : 5
Формат : UTF-8
Идентификатор кодека : S_TEXT/UTF8
Идентификатор кодека/Информация : UTF-8 Plain Text
Язык : Russian
Default : Нет
Forced : Нет
Текст #2
Идентификатор : 6
Формат : UTF-8
Идентификатор кодека : S_TEXT/UTF8
Идентификатор кодека/Информация : UTF-8 Plain Text
Язык : English
Default : Нет
Forced : Нет
Скачать

Скачать торрент!

Как скачивать? · Что такое торрент? · Рейтинг и ограничения

Сайт не распространяет и не хранит электронные версии произведений, а лишь предоставляет доступ к создаваемому пользователями каталогу ссылок на торрент-файлы, которые содержат только списки хеш-сумм

[Профиль] [ЛС]
Показать сообщения:    
Ответить на тему

Текущее время: Сегодня 08:06

Часовой пояс: GMT + 4



Вы не можете начинать темы
Вы не можете отвечать на сообщения
Вы не можете редактировать свои сообщения
Вы не можете удалять свои сообщения
Вы не можете голосовать в опросах
Вы не можете прикреплять файлы к сообщениям
Вы не можете скачивать файлы