Война (Алексей Балабанов) [2002, боевик, драма, DVDRip-AVC] Sub Rus

Ответить на тему
 
Автор Сообщение

user ®

Стаж: 7 лет 7 месяцев

Сообщений: 20008

Пост Пост: #1 от 25-Сен-2013 19:55

[Цитировать]

Война
Жанр: Боевик, драма
Год выпуска: 2002
Продолжительность: 01:59:54
Cубтитры: Русские
Режиссёр: Алексей Балабанов
В ролях: Алексей Чадов, Иэн Келли, Ингеборга Дапкунайте, Сергей Бодров мл., Эвклид Кюрдзидис, Георгий Гургулия, Владимир Гостюхин, Бен Фостер, Юрий Степанов, Дэвид МакАллистер...
Описание: Аслан Гугаев, командир отряда чеченских боевиков, отпускает троих пленников — двух русских солдат сержанта Ивана Ермакова и рядового Кулика — потому что они не контрактники, а призывники. И англичанина Джона Бойла — потому что он должен собрать два миллиона фунтов стерлингов и привезти деньги Гугаеву в качестве выкупа за свою невесту Маргарет. Маргарет остается у Аслана. Так же, как и капитан российской армии Медведев…
За отведенные ему два месяца Джон не находит нужную сумму и не находит поддержки у британских властей, зато, вернувшись в Россию, находит Ваню Ермакова, живущего в Тобольске. Джон и Ваня опять едут в Чечню. Чтобы освободить английскую девушку Маргарет и русского капитана Медведева…
Качество видео: DVDRip-AVC
Формат видео: MKV
Видео: 684x562 (1.737) @ 976x562, 25.000 fps, AVC, ~2200 Kbps, 0.229 bits/pixel
Аудио: 48.0 KHz, AC3, 6 ch, 384 Kbps

Log

x264.exe: --pass 2 --bitrate 2200 --preset medium --ref 9 --deblock -1:-1 --merange 32 --bframes 8 --direct auto --b-adapt 2 --trellis 2 --no-fast-pskip --psy-rd 1.00:0.10 --partitions all --subme 9 --me umh --rc-lookahead 50 --stats "D:\Voina\VideoFile.log" --sar 244:171 --output "D:\Voina\VideoFile.mp4" "D:\Temp\0168.avs"
avs [info]: 684x562p 244:171 @ 25/1 fps (cfr)
x264 [info]: using SAR=244/171
x264 [info]: using cpu capabilities: MMX2 SSE2Fast SSEMisalign LZCNT
x264 [info]: profile High, level 3.1
x264 [info]: frame I:942 Avg QP:15.51 size: 84026
x264 [info]: frame P:37357 Avg QP:18.40 size: 29326
x264 [info]: frame B:141562 Avg QP:22.20 size: 5676
x264 [info]: consecutive B-frames: 1.7% 2.4% 9.9% 7.8% 5.3% 70.8% 1.2% 0.4% 0.5%
x264 [info]: mb I I16..4: 5.3% 69.2% 25.4%
x264 [info]: mb P I16..4: 1.4% 8.7% 2.2% P16..4: 40.3% 23.4% 19.7% 1.2% 0.5% skip: 2.8%
x264 [info]: mb B I16..4: 0.1% 0.8% 0.3% B16..8: 38.5% 8.9% 2.4% direct: 5.8% skip:43.2% L0:34.9% L1:44.7% BI:20.4%
x264 [info]: 8x8 transform intra:69.5% inter:56.2%
x264 [info]: direct mvs spatial:98.5% temporal:1.5%
x264 [info]: coded y,uvDC,uvAC intra: 84.5% 83.1% 55.8% inter: 27.0% 22.1% 3.8%
x264 [info]: i16 v,h,dc,p: 70% 11% 9% 10%
x264 [info]: i8 v,h,dc,ddl,ddr,vr,hd,vl,hu: 17% 9% 8% 8% 12% 12% 11% 12% 12%
x264 [info]: i4 v,h,dc,ddl,ddr,vr,hd,vl,hu: 28% 8% 5% 7% 11% 11% 10% 10% 11%
x264 [info]: i8c dc,h,v,p: 36% 26% 24% 14%
x264 [info]: Weighted P-Frames: Y:5.5% UV:1.2%
x264 [info]: ref P L0: 40.7% 13.5% 19.9% 5.4% 6.2% 3.7% 4.7% 2.2% 3.1% 0.6% 0.0%
x264 [info]: ref B L0: 78.2% 11.3% 3.8% 2.2% 1.7% 1.6% 0.9% 0.4%
x264 [info]: ref B L1: 95.2% 4.8%
x264 [info]: kb/s:2199.75

MediaInfo

General
Unique ID : 209996724561300624593338857159153718054 (0x9DFBE5E3B1AA151D87C7BAA5F1989326)
Complete name : D:\Война.mkv
Format : Matroska
Format version : Version 4 / Version 2
File size : 2.17 GiB
Duration : 1h 59mn
Overall bit rate : 2 586 Kbps
Encoded date : UTC 2013-09-16 14:30:15
Writing application : mkvmerge v6.3.0 ('You can't stop me!') built on Jun 27 2013 22:06:07
Writing library : libebml v1.3.0 + libmatroska v1.4.0
Video
ID : 1
Format : AVC
Format/Info : Advanced Video Codec
Format profile : High@L3.1
Format settings, CABAC : Yes
Format settings, ReFrames : 9 frames
Codec ID : V_MPEG4/ISO/AVC
Duration : 1h 59mn
Bit rate : 2 200 Kbps
Width : 684 pixels
Height : 562 pixels
Display aspect ratio : 1.737
Frame rate mode : Constant
Frame rate : 25.000 fps
Color space : YUV
Chroma subsampling : 4:2:0
Bit depth : 8 bits
Scan type : Progressive
Bits/(Pixel*Frame) : 0.229
Stream size : 1.80 GiB (83%)
Writing library : x264 core 133 r2334 a3ac64b
Encoding settings : cabac=1 / ref=9 / deblock=1:-1:-1 / analyse=0x3:0x133 / me=umh / subme=9 / psy=1 / psy_rd=1.00:0.10 / mixed_ref=1 / me_range=32 / chroma_me=1 / trellis=2 / 8x8dct=1 / cqm=0 / deadzone=21,11 / fast_pskip=0 / chroma_qp_offset=-3 / threads=6 / lookahead_threads=1 / sliced_threads=0 / nr=0 / decimate=1 / interlaced=0 / bluray_compat=0 / constrained_intra=0 / bframes=8 / b_pyramid=2 / b_adapt=2 / b_bias=0 / direct=3 / weightb=1 / open_gop=0 / weightp=2 / keyint=250 / keyint_min=25 / scenecut=40 / intra_refresh=0 / rc_lookahead=50 / rc=2pass / mbtree=1 / bitrate=2200 / ratetol=1.0 / qcomp=0.60 / qpmin=0 / qpmax=69 / qpstep=4 / cplxblur=20.0 / qblur=0.5 / ip_ratio=1.40 / aq=1:1.00
Default : Yes
Forced : No
Audio
ID : 2
Format : AC-3
Format/Info : Audio Coding 3
Mode extension : CM (complete main)
Format settings, Endianness : Big
Codec ID : A_AC3
Duration : 1h 59mn
Bit rate mode : Constant
Bit rate : 384 Kbps
Channel count : 6 channels
Channel positions : Front: L C R, Side: L R, LFE
Sampling rate : 48.0 KHz
Bit depth : 16 bits
Compression mode : Lossy
Stream size : 329 MiB (15%)
Language : Russian
Default : Yes
Forced : No
Text
ID : 3
Format : UTF-8
Codec ID : S_TEXT/UTF8
Codec ID/Info : UTF-8 Plain Text
Language : Russian
Default : No
Forced : No
Menu
00:06:03.000 : :Chapter 01
00:12:31.800 : :Chapter 02
00:17:57.600 : :Chapter 03
00:23:06.600 : :Chapter 04
00:30:25.200 : :Chapter 05
00:37:13.200 : :Chapter 06
00:42:24.000 : :Chapter 07
00:47:47.400 : :Chapter 08
00:53:58.800 : :Chapter 09
01:01:03.400 : :Chapter 10
01:09:00.400 : :Chapter 11
01:17:30.400 : :Chapter 12
01:25:22.000 : :Chapter 13
01:33:41.200 : :Chapter 14
01:39:54.400 : :Chapter 15
01:45:58.000 : :Chapter 16
01:52:07.600 : :Chapter 17
01:56:17.200 : :Chapter 18

Скриншоты

Скачать

Скачать торрент!

Как скачивать? · Что такое торрент? · Рейтинг и ограничения

Сайт не распространяет и не хранит электронные версии произведений, а лишь предоставляет доступ к создаваемому пользователями каталогу ссылок на торрент-файлы, которые содержат только списки хеш-сумм

[Профиль] [ЛС]
Показать сообщения:    
Ответить на тему

Текущее время: Сегодня 11:49

Часовой пояс: GMT + 4



Вы не можете начинать темы
Вы не можете отвечать на сообщения
Вы не можете редактировать свои сообщения
Вы не можете удалять свои сообщения
Вы не можете голосовать в опросах
Вы не можете прикреплять файлы к сообщениям
Вы не можете скачивать файлы