Живая сталь / Real Steel (Шон Леви / Shawn Levy) [2011 г. США, Индия. Фантастика, боевик, семейный, BDRemux 1080p] Dub + AVO (Сербин) + Ukr + Original Eng + Sub Rus, Eng, Ukr + Comm

Ответить на тему
 
Автор Сообщение

user ®

Стаж: 7 лет 7 месяцев

Сообщений: 20008

Пост Пост: #1 от 25-Сен-2013 12:20

[Цитировать]

Живая сталь / Real Steel-«Чемпионами не рождаются, их собирают»- Страна: США
Жанр: Фантастика, боевик, семейный
Год выпуска: 2011
Продолжительность: 02:06:50-Перевод 1: Профессиональный (полное дублирование)
Перевод 2: Авторский (одноголосый закадровый) - Ю. Сербин
Формат субтитров: srt, pgs
Оригинальная аудиодорожка: Английская-Режиссёр: Шон Леви / Shawn Levy-В ролях: Хью Джекман, Дакота Гойо, Эванджелин Лилли, Энтони Маки, Кевин Дюран, Хоуп Дэвис, Джеймс Ребхорн, Марко Руджери, Карл Йун, Ольга Фонда-Описание: События фильма происходят в будущем, где бокс запрещен за негуманностью и заменен боями 2000-фунтовых роботов, управляемых людьми. Бывший боксер, а теперь промоутер, переметнувшийся в Робобокс, решает, что наконец нашел своего чемпиона, когда ему попадается выбракованный, но очень способный робот. Одновременно на жизненном пути героя возникает 11-летний пацан, оказывающийся его сыном. И по мере того, как машина пробивает свой путь к вершине, обретшие друг друга отец и сын учатся дружить.-Доп. инфо: Релиз от
Перевод Ю.Сербина доступен благодаря DVD100, Naumec, Scaramouche, tide, C_Vic, Loki1982, Frailty, Slimka, Afolina, Balrog_69, KINOGON, kalina08, BWS9, georg3g, Mihhaha, arvideo, Kator, alb9925, Kadilla, dicka2000, finalcut.-Тип релиза: BDRemux
Контейнер: MKV
Видео: MPEG-4 AVC / 22235 kbps / 1080p / 23,976 fps / 16:9 / High Profile 4.1
Аудио 1: Русский дубляж / Dolby Digital / 5.1 / 640 kbps / 48 kHz
Аудио 2: Украинский дубляж / Dolby Digital / 5.1 / 640 kbps / 48 kHz
Аудио 3: Русский одноголосый Ю.Сербин / DTS-HD MA / 7.1 / 48 kHz / 5375 kbps /24-bit (DTS Core: 5.1 / 48 kHz / 1509 kbps / 24-bit) (спасибо sergey_n)
Аудио 4: Английский / DTS-HD MA / 7.1 / 48 kHz / 6065 kbps /24-bit (DTS Core: 5.1 / 48 kHz / 1509 kbps / 24-bit)
Аудио 5: Английский / Dolby Digital / 2.0 / 48 kHz / 192 kbps (комментарии Шона Леви)
Cубтитры 1: Русские BD srt (только надписи и пр.)
Cубтитры 2: Русские BD srt
Cубтитры 3: Русские BD srt (комментарии Шона Леви)
Cубтитры 4: Украинские BD srt (только надписи и пр.) (спасибо arestarh1986)
Cубтитры 5: Украинские BD srt (спасибо arestarh1986)
Cубтитры 6: Украинские BD srt (комментарии Шона Леви) (спасибо arestarh1986)
Cубтитры 7: Английские srt
Cубтитры 8: Русские BD pgs
Cубтитры 9: Русские BD pgs (комментарии Шона Леви)
Cубтитры 10: Украинские BD pgs
Cубтитры 11: Украинские BD pgs (комментарии Шона Леви)
Cубтитры 12: Английские pgs
Cубтитры 13: Английские SDH pgs
Чаптеры: есть
-

Скриншоты


MediaInfo

Полное имя                       : Real.Steel.2011.Blu-ray.1080p.AVC.Rus.Ukr.Eng.mkv
Формат                           : Matroska
Версия формата                   : Version 2
Размер файла                     : 31,3 Гбайт
Продолжительность                : 2 ч. 6 м.
Режим общего битрейта            : Переменный
Общий поток                      : 35,3 Мбит/сек
Название фильма                  : HANSMER
Дата кодирования                 : UTC 2012-01-30 19:06:22
Программа кодирования            : mkvmerge v5.2.0 ('I can't explain') built on Dec 18 2011 18:12:03
Библиотека кодирования           : libebml v1.2.3 + libmatroska v1.3.0
Видео
Идентификатор                    : 1
Формат                           : AVC
Формат/Информация                : Advanced Video Codec
Профиль формата                  : High@L4.1
Параметр CABAC формата           : Да
Параметр ReFrames формата        : 4 кадра
Режим смешивания                 : Container profile=Unknown@0.0
Идентификатор кодека             : V_MPEG4/ISO/AVC
Продолжительность                : 2 ч. 6 м.
Вид битрейта                     : Переменный
Битрейт                          : 27,6 Мбит/сек
Максимальный битрейт             : 37,0 Мбит/сек
Ширина                           : 1920 пикселей
Высота                           : 1080 пикселей
Соотношение сторон               : 16:9
Частота кадров                   : 23,976 кадра/сек
Цветовое пространство            : YUV
Субдискретизация насыщенности    : 4:2:0
Битовая глубина                  : 8 бит
Тип развёртки                    : Прогрессивная
Бит/(Пиксели*Кадры)              : 0.556
Размер потока                    : 24,5 Гбайт (78%)
Заголовок                        : 22235 kbps
Язык                             : English
Аудио #1
Идентификатор                    : 2
Формат                           : AC-3
Формат/Информация                : Audio Coding 3
Расширение режима                : CM (complete main)
Идентификатор кодека             : A_AC3
Продолжительность                : 2 ч. 6 м.
Вид битрейта                     : Постоянный
Битрейт                          : 640 Кбит/сек
Каналы                           : 6 каналов
Расположение каналов             : Front: L C R, Side: L R, LFE
Частота                          : 48,0 КГц
Битовая глубина                  : 16 бит
Метод сжатия                     : С потерями
Размер потока                    : 581 Мбайт (2%)
Заголовок                        : Dub
Язык                             : Russian
Аудио #2
Идентификатор                    : 3
Формат                           : AC-3
Формат/Информация                : Audio Coding 3
Расширение режима                : CM (complete main)
Идентификатор кодека             : A_AC3
Продолжительность                : 2 ч. 6 м.
Вид битрейта                     : Постоянный
Битрейт                          : 640 Кбит/сек
Каналы                           : 6 каналов
Расположение каналов             : Front: L C R, Side: L R, LFE
Частота                          : 48,0 КГц
Битовая глубина                  : 16 бит
Метод сжатия                     : С потерями
Размер потока                    : 581 Мбайт (2%)
Заголовок                        : Dub
Язык                             : Ukrainian
Аудио #3
Идентификатор                    : 4
Формат                           : DTS
Формат/Информация                : Digital Theater Systems
Профиль формата                  : MA / Core
Идентификатор кодека             : A_DTS
Продолжительность                : 2 ч. 6 м.
Вид битрейта                     : Переменный
Битрейт                          : 2401 Кбит/сек / 1510 Кбит/сек
Каналы                           : 8 каналов / 6 каналов
Расположение каналов             : Front: L C R, Side: L R, Back: L R, LFE / Front: L C R, Side: L R, LFE
Частота                          : 48,0 КГц
Битовая глубина                  : 24 бит
Метод сжатия                     : Без потерь / Lossy
Заголовок                        : Juri Serbin / DTS-HD MA 7.1 @ 5375 kbps
Аудио #4
Идентификатор                    : 5
Формат                           : DTS
Формат/Информация                : Digital Theater Systems
Профиль формата                  : MA / Core
Идентификатор кодека             : A_DTS
Продолжительность                : 2 ч. 6 м.
Вид битрейта                     : Переменный
Битрейт                          : 3097 Кбит/сек / 1510 Кбит/сек
Каналы                           : 8 каналов / 6 каналов
Расположение каналов             : Front: L C R, Side: L R, Back: L R, LFE / Front: L C R, Side: L R, LFE
Частота                          : 48,0 КГц
Битовая глубина                  : 24 бит
Метод сжатия                     : Без потерь / Lossy
Заголовок                        : DTS-HD MA 7.1 @ 6065 kbps
Язык                             : English
Аудио #5
Идентификатор                    : 6
Формат                           : AC-3
Формат/Информация                : Audio Coding 3
Расширение режима                : CM (complete main)
Идентификатор кодека             : A_AC3
Продолжительность                : 2 ч. 6 м.
Вид битрейта                     : Постоянный
Битрейт                          : 192 Кбит/сек
Каналы                           : 2 канала
Расположение каналов             : Front: L R
Частота                          : 48,0 КГц
Битовая глубина                  : 16 бит
Метод сжатия                     : С потерями
Размер потока                    : 174 Мбайт (1%)
Заголовок                        : Commentary with Shawn Levy
Язык                             : English
Текст #1
Идентификатор                    : 7
Формат                           : UTF-8
Идентификатор кодека             : S_TEXT/UTF8
Идентификатор кодека/Информация  : UTF-8 Plain Text
Заголовок                        : Forced
Язык                             : Russian
Текст #2
Идентификатор                    : 8
Формат                           : UTF-8
Идентификатор кодека             : S_TEXT/UTF8
Идентификатор кодека/Информация  : UTF-8 Plain Text
Заголовок                        : Full
Язык                             : Russian
Текст #3
Идентификатор                    : 9
Формат                           : UTF-8
Идентификатор кодека             : S_TEXT/UTF8
Идентификатор кодека/Информация  : UTF-8 Plain Text
Заголовок                        : Commentary
Язык                             : Russian
Текст #4
Идентификатор                    : 10
Формат                           : UTF-8
Идентификатор кодека             : S_TEXT/UTF8
Идентификатор кодека/Информация  : UTF-8 Plain Text
Заголовок                        : Forced
Язык                             : Ukrainian
Текст #5
Идентификатор                    : 11
Формат                           : UTF-8
Идентификатор кодека             : S_TEXT/UTF8
Идентификатор кодека/Информация  : UTF-8 Plain Text
Заголовок                        : Full
Язык                             : Ukrainian
Текст #6
Идентификатор                    : 12
Формат                           : UTF-8
Идентификатор кодека             : S_TEXT/UTF8
Идентификатор кодека/Информация  : UTF-8 Plain Text
Заголовок                        : Commentary
Язык                             : Ukrainian
Текст #7
Идентификатор                    : 13
Формат                           : UTF-8
Идентификатор кодека             : S_TEXT/UTF8
Идентификатор кодека/Информация  : UTF-8 Plain Text
Язык                             : English
Текст #8
Идентификатор                    : 14
Формат                           : PGS
Идентификатор кодека             : S_HDMV/PGS
Идентификатор кодека/Информация  : The same subtitle format used on BDs/HD-DVDs
Заголовок                        : PGS Full
Язык                             : Russian
Текст #9
Идентификатор                    : 15
Формат                           : PGS
Идентификатор кодека             : S_HDMV/PGS
Идентификатор кодека/Информация  : The same subtitle format used on BDs/HD-DVDs
Заголовок                        : PGS Commentary
Язык                             : Russian
Текст #10
Идентификатор                    : 16
Формат                           : PGS
Идентификатор кодека             : S_HDMV/PGS
Идентификатор кодека/Информация  : The same subtitle format used on BDs/HD-DVDs
Заголовок                        : PGS Full
Язык                             : Ukrainian
Текст #11
Идентификатор                    : 17
Формат                           : PGS
Идентификатор кодека             : S_HDMV/PGS
Идентификатор кодека/Информация  : The same subtitle format used on BDs/HD-DVDs
Заголовок                        : PGS Commentary
Язык                             : Ukrainian
Текст #12
Идентификатор                    : 18
Формат                           : PGS
Идентификатор кодека             : S_HDMV/PGS
Идентификатор кодека/Информация  : The same subtitle format used on BDs/HD-DVDs
Заголовок                        : PGS
Язык                             : English
Текст #13
Идентификатор                    : 19
Формат                           : PGS
Идентификатор кодека             : S_HDMV/PGS
Идентификатор кодека/Информация  : The same subtitle format used on BDs/HD-DVDs
Заголовок                        : PGS SDH
Язык                             : English
Меню
00:00:00.000                     : en:Opening Titles
00:03:00.472                     : en:Charlie Kenton
00:10:38.304                     : en:Wheeling & dealing
00:18:50.546                     : en:Noisy Boy Has Arrived
00:24:29.885                     : en:Crash Palace
00:34:14.761                     : en:Metal Valley
00:41:22.355                     : en:Atom
00:48:46.131                     : en:He Was Beautiful
00:52:08.709                     : en:The Champ Is Here
00:57:15.015                     : en:The Zoo
01:05:01.231                     : en:Training Atom
01:12:33.974                     : en:Climbing The Ranks
01:18:26.994                     : en:Twin Cities
01:26:28.517                     : en:Fight For Me
01:32:50.773                     : en:Go Get Him, Charlie
01:39:19.704                     : en:The Mighty Zeus
01:48:22.663                     : en:Toe-To-Toe
01:52:26.865                     : en:Final Round
01:57:21.868                     : en:People's Champion
02:00:50.326                     : en:End Credits
Скачать

Скачать торрент!

Как скачивать? · Что такое торрент? · Рейтинг и ограничения

Сайт не распространяет и не хранит электронные версии произведений, а лишь предоставляет доступ к создаваемому пользователями каталогу ссылок на торрент-файлы, которые содержат только списки хеш-сумм

[Профиль] [ЛС]
Показать сообщения:    
Ответить на тему

Текущее время: Сегодня 20:33

Часовой пояс: GMT + 4



Вы не можете начинать темы
Вы не можете отвечать на сообщения
Вы не можете редактировать свои сообщения
Вы не можете удалять свои сообщения
Вы не можете голосовать в опросах
Вы не можете прикреплять файлы к сообщениям
Вы не можете скачивать файлы