Громовое сердце / Thunderheart (Майкл Эптид / Michael Apted) [1992, США, боевик, триллер, криминал, детектив, WEB-DL 720p] 3x MVO + AVO (Живов) + Eng + Sub

Ответить на тему
 
Автор Сообщение

user ®

Стаж: 7 лет 7 месяцев

Сообщений: 20008

Пост Пост: #1 от 24-Сен-2013 22:25

[Цитировать]

Громовое сердце / Thunderheart Год выпуска: 1992
Страна: США
Жанр: боевик, триллер, криминал, детектив
Продолжительность: 01:59:19
Перевод #1: профессиональный (многоголосый закадровый)
Перевод #2: профессиональный (многоголосый закадровый, РенТВ)
Перевод #3: профессиональный (многоголосый закадровый, СТС)
Перевод #4: авторский (Живов)
Оригинальная аудиодорожка: английский
Русские субтитры: есть
Навигация по главам: есть-Режиссер: Майкл Эптид / Michael Apted
В ролях: Вэл Килмер, Сэм Шепард, Грэм Грин, Фред Уорд, Фред Долтон Томпсон, Шила Таузи, Тед Тин Элк, Джон Труделл, Джулиус Драм, Сара Брейв
Описание: Агента ФБР Рэя, в чьих жилах течет индейская кровь, отправляют в резервацию расследовать убийство, в котором подозревается борец за права этого немногочисленного народа. Там он знакомится с местным шерифом и вождем племени.
По мере того, как Рэй приближается к цели, он все меньше уверен в виновности подозреваемого. В конце концов, агент понимает, что правительство США пытается его руками устранить неугодного человека. И в этот момент в нем просыпается Индеец, чье сердце не терпит несправедливости и лжи.
"Фильм поставлен по реальным событиям, имевшим место в резервации индейцев сиу. Молодого агента ФБР Рэя (Килмер) (он полуиндейского происхождения) направляют туда, чтобы разобраться в убийствах, совершаемых так называемыми традиционалистами, ведущими борьбу за свои права и возврат к древним обычаям и образу жизни. Там уже работает опытный, пользующийся легендарной славой агент Кутелл (Пуллмэн). Все, что казалось таким простым в Вашингтоне, в резервации становится не просто сложным, но мистическим, потусторонним. Но фильм отнюдь не мистический, всему находится вполне прозаичное объяснение. На земле индейцев добывали уран, и многие, включая Кутелла, имели с этого крупные деньги. Уран отравлял реку, умирали люди. Тех, кто пытался остановить преступление, убивали, самих борцов объявляли убийцами. Хорошая, интересная картина." (© Иванов М.)-Качество: WEB-DL 720p
Формат: MKV
Видеокодек: AVC, x264 L3.1
Аудиокодек: AC3
Видео: 1280x718; 23.976 fps; 3971 Kbps
Аудио #1: Русский; AC3; 2 Ch; 48.0 KHz; 192 Kbps; | MVO
Аудио #2: Русский; AC3; 2 Ch; 48.0 KHz; 192 Kbps; | MVO(РенТВ)
Аудио #3: Русский; AC3; 2 Ch; 48.0 KHz; 192 Kbps; | MVO(СТС)
Аудио #4: Русский; AC3; 2 Ch; 48.0 KHz; 192 Kbps; | AVO(Живов)
Аудио #5: Английский; AC3; 2 Ch; 48.0 KHz; 256 Kbps; | Оригинал
Субтитры #1: Русские; SRT UTF-8
Субтитры #2: Английские; SRT UTF-8-
В дорожках РенТВ и СТС есть небольшие пропуски - там вставлен перевод с первой дорожки.
Скачать сэмпл - http://multi-up.com/906328

MediaInfo

General
Unique ID : 193737506570660669566840988998724222218 (0x91C07C8CEFFF5112A5B8FA70E42FFD0A)
Complete name : E:\MyRazd\Thunderheart.1992.WEB-DL.720p.mkv
Format : Matroska
Format version : Version 4 / Version 2
File size : 4.25 GiB
Duration : 1h 59mn
Overall bit rate : 5 096 Kbps
Movie name : Thunderheart.1992
Encoded date : UTC 2013-09-24 11:54:06
Writing application : mkvmerge v6.2.0 ('Promised Land') built on Apr 28 2013 12:22:01
Writing library : libebml v1.3.0 + libmatroska v1.4.0
Video
ID : 1
Format : AVC
Format/Info : Advanced Video Codec
Format profile : High@L3.1
Format settings, CABAC : No
Format settings, ReFrames : 2 frames
Codec ID : V_MPEG4/ISO/AVC
Duration : 1h 59mn
Bit rate : 3 971 Kbps
Width : 1 280 pixels
Height : 718 pixels
Display aspect ratio : 16:9
Frame rate : 23.976 fps
Color space : YUV
Chroma subsampling : 4:2:0
Bit depth : 8 bits
Scan type : Progressive
Bits/(Pixel*Frame) : 0.180
Stream size : 3.31 GiB (78%)
Title : Thunderheart.1992.WEB-DL.720p
Language : English
Default : Yes
Forced : No
Color primaries : BT.709-5, BT.1361, IEC 61966-2-4, SMPTE RP177
Transfer characteristics : BT.709-5, BT.1361
Matrix coefficients : BT.709-5, BT.1361, IEC 61966-2-4 709, SMPTE RP177
Audio #1
ID : 2
Format : AC-3
Format/Info : Audio Coding 3
Mode extension : CM (complete main)
Codec ID : A_AC3
Duration : 1h 59mn
Bit rate mode : Constant
Bit rate : 192 Kbps
Channel(s) : 2 channels
Channel positions : Front: L R
Sampling rate : 48.0 KHz
Bit depth : 16 bits
Compression mode : Lossy
Stream size : 164 MiB (4%)
Title : MVO
Language : Russian
Default : Yes
Forced : No
Audio #2
ID : 3
Format : AC-3
Format/Info : Audio Coding 3
Mode extension : CM (complete main)
Codec ID : A_AC3
Duration : 1h 59mn
Bit rate mode : Constant
Bit rate : 192 Kbps
Channel(s) : 2 channels
Channel positions : Front: L R
Sampling rate : 48.0 KHz
Bit depth : 16 bits
Compression mode : Lossy
Stream size : 164 MiB (4%)
Title : MVO (RENTV)
Language : Russian
Default : No
Forced : No
Audio #3
ID : 4
Format : AC-3
Format/Info : Audio Coding 3
Mode extension : CM (complete main)
Codec ID : A_AC3
Duration : 1h 59mn
Bit rate mode : Constant
Bit rate : 192 Kbps
Channel(s) : 2 channels
Channel positions : Front: L R
Sampling rate : 48.0 KHz
Bit depth : 16 bits
Compression mode : Lossy
Stream size : 164 MiB (4%)
Title : MVO (STS)
Language : Russian
Default : No
Forced : No
Audio #4
ID : 5
Format : AC-3
Format/Info : Audio Coding 3
Mode extension : CM (complete main)
Codec ID : A_AC3
Duration : 1h 59mn
Bit rate mode : Constant
Bit rate : 192 Kbps
Channel(s) : 2 channels
Channel positions : Front: L R
Sampling rate : 48.0 KHz
Bit depth : 16 bits
Compression mode : Lossy
Stream size : 164 MiB (4%)
Title : AVO (Jivov)
Language : Russian
Default : No
Forced : No
Audio #5
ID : 6
Format : AC-3
Format/Info : Audio Coding 3
Mode extension : CM (complete main)
Codec ID : A_AC3
Duration : 1h 59mn
Bit rate mode : Constant
Bit rate : 256 Kbps
Channel(s) : 2 channels
Channel positions : Front: L R
Sampling rate : 48.0 KHz
Bit depth : 16 bits
Compression mode : Lossy
Stream size : 218 MiB (5%)
Title : Original
Language : English
Default : No
Forced : No
Text #1
ID : 7
Format : UTF-8
Codec ID : S_TEXT/UTF8
Codec ID/Info : UTF-8 Plain Text
Language : Russian
Default : No
Forced : No
Text #2
ID : 8
Format : UTF-8
Codec ID : S_TEXT/UTF8
Codec ID/Info : UTF-8 Plain Text
Language : English
Default : No
Forced : No
Menu
00:00:00.000 : en:1
00:06:58.000 : en:2
00:13:31.000 : en:3
00:24:27.000 : en:4
00:34:50.000 : en:5
00:37:15.000 : en:6
00:43:33.000 : en:7
00:51:50.000 : en:8
00:55:47.000 : en:9
01:04:06.000 : en:10
01:13:27.000 : en:11
01:22:12.000 : en:12
01:30:21.000 : en:13
01:36:09.000 : en:14
01:42:10.000 : en:15
01:46:11.000 : en:16

Скриншоты

Скачать

Скачать торрент!

Как скачивать? · Что такое торрент? · Рейтинг и ограничения

Сайт не распространяет и не хранит электронные версии произведений, а лишь предоставляет доступ к создаваемому пользователями каталогу ссылок на торрент-файлы, которые содержат только списки хеш-сумм

[Профиль] [ЛС]
Показать сообщения:    
Ответить на тему

Текущее время: Сегодня 00:11

Часовой пояс: GMT + 4



Вы не можете начинать темы
Вы не можете отвечать на сообщения
Вы не можете редактировать свои сообщения
Вы не можете удалять свои сообщения
Вы не можете голосовать в опросах
Вы не можете прикреплять файлы к сообщениям
Вы не можете скачивать файлы