Хроники ломбарда / Pawn Shop Chronicles (Уэйн Крамер / Wayne Kramer) [2013, США, криминал, комедия, боевик, WEB-DL 720p] VO + Original (Eng) + Sub (eng)

Ответить на тему
 
Автор Сообщение

user ®

Стаж: 7 лет 7 месяцев

Сообщений: 20008

Пост Пост: #1 от 24-Сен-2013 22:25

[Цитировать]

Хроники ломбарда
Pawn Shop Chronicles
«Каждая вещь хранит секрет» Страна: США
Год выпуска: 2013
Жанр: криминал, комедия, боевик
Продолжительность: 01:52:25
Перевод: Одноголосый закадровый [Артём Белоконский] по переводу [JasON BourNE]
русские субтитры: нет-Режиссёр: Уэйн Крамер : Wayne Kramer
В главных ролях: Брендан Фрейзер, Элайджа Вуд, Винсент Д’Онофрио, Томас Джейн, Норман Ридус, Мэтт Диллон, Пол Уокер, Кевин О. Ранкин, Чи МакБрайд, DJ Куаллс ...-Описание: Три разные истории объединяет ломбард в захолустном городишке. Именно там пересекаются персонажи казалось бы разных сюжетных линий.
Первая история — криминальная комедия о наркоманах неудачниках, пытающихся ограбить своего дилера.
Вторая — триллер, где неожиданная находка в ломбарде кольца пропавшей много лет назад жены приводит мужчину к маньяку, удерживающем в плену 21 девушку.
Третья история — комедия о жизни двойника Элвиса, кочующего со своим шоу по ярмаркам американской провинции.- -Качество: WEB-DL 720p
Формат: MKV
Видео кодек: AVC
Аудио кодек: АС3
Видео: 1280x716, 23.976 fps, ~4 005 kbps avg, 0.182 bit/pixel
Аудио #1: [RUS] 48 kHz, AC3 Dolby Digital, 3/2 (L,C,R,l,r) + LFE ch, ~384 kbps
Аудио #2: [ENG] 48 kHz, AC3 Dolby Digital, 3/2 (L,C,R,l,r) + LFE ch, ~384 kbps
субтитры: английские
навигация по главам: 12 глав

скриншоты

MediaInfo

Общее
Уникальный идентификатор : 234708667779094275774758972386831635065 (0xB0933EC209F845CCB982FE4B6BA61279)
Полное имя : D:\Im\Хроники ломбарда\Pawn Shop Chronicles.2013.WEB-DL 720p.mkv
Формат : Matroska
Версия формата : Version 4 / Version 2
Размер файла : 3,82 Гбайт
Продолжительность : 1 ч. 52 м.
Общий поток : 4870 Кбит/сек
Дата кодирования : UTC 2013-09-24 14:33:04
Программа кодирования : mkvmerge v6.4.1 ('Omega Point') built on Sep 16 2013 22:05:10
Библиотека кодирования : libebml v1.3.0 + libmatroska v1.4.1
Видео
Идентификатор : 1
Формат : AVC
Формат/Информация : Advanced Video Codec
Профиль формата : High@L3.1
Параметр CABAC формата : Нет
Параметр ReFrames формата : 2 кадра
Параметр GOP формата : N=1
Идентификатор кодека : V_MPEG4/ISO/AVC
Продолжительность : 1 ч. 52 м.
Битрейт : 4005 Кбит/сек
Ширина : 1280 пикселей
Высота : 716 пикселей
Соотношение сторон : 16:9
Частота кадров : 23,976 кадра/сек
Цветовое пространство : YUV
Субдискретизация насыщенности : 4:2:0
Битовая глубина : 8 бит
Тип развёртки : Прогрессивная
Бит/(Пиксели*Кадры) : 0.182
Размер потока : 3,15 Гбайт (82%)
Язык : English
Default : Да
Forced : Нет
Основные цвета : BT.709-5, BT.1361, IEC 61966-2-4, SMPTE RP177
Характеристики трансфера : BT.709-5, BT.1361
Коэффициенты матрицы : BT.709-5, BT.1361, IEC 61966-2-4 709, SMPTE RP177
Аудио #1
Идентификатор : 2
Формат : AC-3
Формат/Информация : Audio Coding 3
Расширение режима : CM (complete main)
Идентификатор кодека : A_AC3
Продолжительность : 1 ч. 52 м.
Вид битрейта : Постоянный
Битрейт : 384 Кбит/сек
Каналы : 6 каналов
Расположение каналов : Front: L C R, Side: L R, LFE
Частота : 48,0 КГц
Битовая глубина : 16 бит
Метод сжатия : С потерями
Размер потока : 309 Мбайт (8%)
Заголовок : VO [Артём Белоконский]
Язык : Russian
Default : Да
Forced : Нет
Аудио #2
Идентификатор : 3
Формат : AC-3
Формат/Информация : Audio Coding 3
Расширение режима : CM (complete main)
Идентификатор кодека : A_AC3
Продолжительность : 1 ч. 52 м.
Вид битрейта : Постоянный
Битрейт : 384 Кбит/сек
Каналы : 6 каналов
Расположение каналов : Front: L C R, Side: L R, LFE
Частота : 48,0 КГц
Битовая глубина : 16 бит
Метод сжатия : С потерями
Размер потока : 309 Мбайт (8%)
Заголовок : ENG
Язык : English
Default : Нет
Forced : Нет
Текст
Идентификатор : 4
Формат : UTF-8
Идентификатор кодека : S_TEXT/UTF8
Идентификатор кодека/Информация : UTF-8 Plain Text
Заголовок : Eng Sub
Язык : English
Default : Нет
Forced : Нет
Меню
00:00:00.000 : en:Main Title / Black Santa
00:02:45.000 : en:The Shotgun
00:13:08.000 : en:The Man
00:23:01.000 : en:Scared Of Clowns
00:29:39.000 : en:The Ring
00:37:01.000 : en:J.J. Thomason
00:50:41.000 : en:John Shaw's House
00:59:30.000 : en:Caged Love
01:12:14.000 : en:The Medallion
01:22:44.000 : en:Erwin County Fair
01:38:27.000 : en:"Open Road Is My Home"
01:44:32.000 : en:End Credits
Внимание!!! Присутствует ненормативная лексика!
Скачать

Скачать торрент!

Как скачивать? · Что такое торрент? · Рейтинг и ограничения

Сайт не распространяет и не хранит электронные версии произведений, а лишь предоставляет доступ к создаваемому пользователями каталогу ссылок на торрент-файлы, которые содержат только списки хеш-сумм

[Профиль] [ЛС]

GARANOV

Стаж: 3 года 2 месяца

Сообщений: 5

Пост Пост: #2 от 25-Сен-2013 00:02 (спустя 1 час 37 минут)

[Цитировать]

Не пойму почему на сайте ни кого нет,а он не плохой
[Профиль] [ЛС]

GARANOV

Стаж: 3 года 2 месяца

Сообщений: 5

Пост Пост: #3 от 25-Сен-2013 10:26 (спустя 10 часов)

[Цитировать]

зарание не посмотрел какой перевод,а мне кто нибудь здесь ответит на первое сообщение?
[Профиль] [ЛС]

GARANOV

Стаж: 3 года 2 месяца

Сообщений: 5

Пост Пост: #4 от 25-Сен-2013 11:21 (спустя 55 минут)

[Цитировать]

что за дела,большую часть фильма скачал с большой скоростью и резко всё прикратилось,если скорость так и не пойдёт,уйду с этого сайта,темболее тур похоже не кого нет
[Профиль] [ЛС]
Показать сообщения:    
Ответить на тему

Текущее время: Сегодня 18:14

Часовой пояс: GMT + 4



Вы не можете начинать темы
Вы не можете отвечать на сообщения
Вы не можете редактировать свои сообщения
Вы не можете удалять свои сообщения
Вы не можете голосовать в опросах
Вы не можете прикреплять файлы к сообщениям
Вы не можете скачивать файлы