4:44 Последний день на Земле / 4:44 Last Day on Earth (Абель Феррара / Abel Ferrara) [2011, США, Франция, Швейцария, фантастика, драма, BDRip 720p] MVO + Sub Eng + Original Eng

Ответить на тему
 
Автор Сообщение

user ®

Стаж: 7 лет 7 месяцев

Сообщений: 20008

Пост Пост: #1 от 24-Сен-2013 22:25

[Цитировать]

4:44 Последний день на Земле / 4:44 Last Day on Earth
Страна: США , Франция , Швейцария
Жанр: фантастика, драма
Год выпуска: 2011
Продолжительность: 01:21:49
Перевод: Профессиональный (многоголосый закадровый)
Cубтитры: английские
Оригинальная аудиодорожка: английский
Режиссер: Абель Феррара / Abel Ferrara
В ролях: Уиллем Дефо, Шэнин Ли, Наташа Лионн, Пол Хипп, Диердра Макдауэлл, Триана Джексон, Хунг Нгуйен, Анита Палленберг, Хосе Солано, Джудит Салазар
Описание: Двое живут в дизайнерском пентхаусе на Манхеттене. Обычный день, они вместе, они страстно влюблены друг в друга… Только весь мир знает об одной истине: завтра, ровно в 4:44 часа дня, человечество навсегда прекратит свое существование.
Сэмпл: http://multi-up.com/906369
Тип релиза: BDRip 720p
Контейнер: MKV
Видео: 1280*720, 23,976 кадра/сек, 5500 Кбит/сек
Аудио: AC-3, 384 Кбит/сек, 6Ch, 48,0 КГц-русский
Аудио 2: DTS, 1509 Кбит/сек, 6Ch, 48,0 КГц-английский

MediaInfo

Общее
Уникальный идентификатор : 194711023247449445853353480759247688907 (0x927BFAA0E34C0B658EF090EE6738D4CB)
Полное имя : P:\4.44.Last.Day.On.Earth.2011.720p.BluRay.DTS.x264(RG AVI-AVC).mkv
Формат : Matroska
Версия формата : Version 2
Размер файла : 4,23 Гбайт
Продолжительность : 1 ч. 21 м.
Общий поток : 7390 Кбит/сек
Дата кодирования : UTC 2013-09-24 13:11:34
Программа кодирования : mkvmerge v5.5.0 ('Healer') built on Apr 6 2012 21:43:24
Библиотека кодирования : libebml v1.2.3 + libmatroska v1.3.0
Видео
Идентификатор : 1
Формат : AVC
Формат/Информация : Advanced Video Codec
Профиль формата : High@L4.1
Параметр CABAC формата : Да
Параметр ReFrames формата : 9 кадров
Идентификатор кодека : V_MPEG4/ISO/AVC
Продолжительность : 1 ч. 21 м.
Битрейт : 5500 Кбит/сек
Ширина : 1280 пикселей
Высота : 720 пикселей
Соотношение сторон : 16:9
Режим частоты кадров : Постоянный
Частота кадров : 23,976 кадра/сек
Цветовое пространство : YUV
Субдискретизация насыщенности : 4:2:0
Битовая глубина : 8 бит
Тип развёртки : Прогрессивная
Бит/(Пиксели*Кадры) : 0.249
Размер потока : 3,06 Гбайт (72%)
Библиотека кодирования : x264 core 125 r2200 999b753
Настройки программы : cabac=1 / ref=9 / deblock=1:-3:-3 / analyse=0x3:0x113 / me=tesa / subme=11 / psy=1 / psy_rd=1.00:0.00 / mixed_ref=1 / me_range=16 / chroma_me=1 / trellis=2 / 8x8dct=1 / cqm=0 / deadzone=21,11 / fast_pskip=0 / chroma_qp_offset=-2 / threads=12 / lookahead_threads=2 / sliced_threads=0 / nr=0 / decimate=0 / interlaced=0 / bluray_compat=0 / constrained_intra=0 / bframes=7 / b_pyramid=2 / b_adapt=2 / b_bias=0 / direct=3 / weightb=1 / open_gop=0 / weightp=2 / keyint=250 / keyint_min=23 / scenecut=40 / intra_refresh=0 / rc=2pass / mbtree=0 / bitrate=5500 / ratetol=1.0 / qcomp=0.55 / qpmin=0 / qpmax=69 / qpstep=4 / cplxblur=20.0 / qblur=0.5 / ip_ratio=1.40 / pb_ratio=1.30 / aq=1:0.70
Язык : English
Default : Да
Forced : Нет
Аудио #1
Идентификатор : 2
Формат : AC-3
Формат/Информация : Audio Coding 3
Расширение режима : CM (complete main)
Параметр Endianness формата : Big
Идентификатор кодека : A_AC3
Продолжительность : 1 ч. 21 м.
Вид битрейта : Постоянный
Битрейт : 384 Кбит/сек
Каналы : 6 каналов
Расположение каналов : Front: L C R, Side: L R, LFE
Частота : 48,0 КГц
Битовая глубина : 16 бит
Метод сжатия : С потерями
Размер потока : 225 Мбайт (5%)
Язык : Russian
Default : Да
Forced : Нет
Аудио #2
Идентификатор : 3
Формат : DTS
Формат/Информация : Digital Theater Systems
Режим : 16
Параметр Endianness формата : Big
Идентификатор кодека : A_DTS
Продолжительность : 1 ч. 21 м.
Вид битрейта : Постоянный
Битрейт : 1509 Кбит/сек
Каналы : 6 каналов
Расположение каналов : Front: L C R, Side: L R, LFE
Частота : 48,0 КГц
Битовая глубина : 24 бит
Метод сжатия : С потерями
Размер потока : 883 Мбайт (20%)
Язык : English
Default : Нет
Forced : Нет
Текст
Идентификатор : 4
Формат : UTF-8
Идентификатор кодека : S_TEXT/UTF8
Идентификатор кодека/Информация : UTF-8 Plain Text
Язык : English
Default : Да
Forced : Нет
Меню
00:00:00.000 : en:00:00:00.000
00:09:19.476 : en:00:09:19.476
00:14:41.547 : en:00:14:41.547
00:22:30.599 : en:00:22:30.599
00:27:55.173 : en:00:27:55.173
00:35:36.343 : en:00:35:36.343
00:40:40.605 : en:00:40:40.605
00:50:08.923 : en:00:50:08.923
00:57:23.774 : en:00:57:23.774
01:03:48.825 : en:01:03:48.825
01:11:33.414 : en:01:11:33.414
01:18:20.613 : en:01:18:20.613

Скриншоты

Скачать

Скачать торрент!

Как скачивать? · Что такое торрент? · Рейтинг и ограничения

Сайт не распространяет и не хранит электронные версии произведений, а лишь предоставляет доступ к создаваемому пользователями каталогу ссылок на торрент-файлы, которые содержат только списки хеш-сумм

[Профиль] [ЛС]
Показать сообщения:    
Ответить на тему

Текущее время: Сегодня 17:51

Часовой пояс: GMT + 4



Вы не можете начинать темы
Вы не можете отвечать на сообщения
Вы не можете редактировать свои сообщения
Вы не можете удалять свои сообщения
Вы не можете голосовать в опросах
Вы не можете прикреплять файлы к сообщениям
Вы не можете скачивать файлы