Вундеркинды / The Prodigies (Антуан Шаррейрон / Antoine Charreyron) [2011, Канада, Франция, Великобритания, Индия, мультфильм, фантастика, BDRip] VO (den904)

Ответить на тему
 
Автор Сообщение

user ®

Стаж: 13 лет

Сообщений: 15041

Пост Пост: #1 от 24-Сен-2013 16:05

[Цитировать]

-Вундеркинды
The Prodigies
- Год выпуска: 2011
Страна: Великобритания, Индия, Бельгия, Канада, Люксембург, Франция
Жанр: мультфильм, фантастика
Продолжительность: 01:35:12
Перевод: Одноголосый закадровый - den904
Субтитры: Отсутствуют
Режиссёр: Антуан Шаррейрон / Antoine Charreyron-В ролях: Джеффри Ивэн Томас, Лорен Эшли Картер, Мун Дайлли Лорен Демианофф, Алекс Мартин, Нилтон Мартинс, Джейкоб Розенбаум, Бен Шиллинг, Карен Страссман, Клер Тилль и др.-Описание: Мультфильм рассказывает о судьбе пятерых нью-йоркских тинейджеров со сверхспособностями в не самый удачный период переходного возраста. Нападки со стороны окружающих заставляют их не на шутку озлобиться и начать методично сравнивать город с землей. Но есть и шестой, который, вроде бы, может спасти нас от несвоевременного Апокалипсиса.-Качество: BDRip ([url=http://***/forum/viewtopic.php?t=4534198]BDRemux 1080p[/url])
Формат: AVI
Видео кодек: XviD
Аудио кодек: AC3
Видео: 704x384 (1.85:1), 23.976 fps, ~1735 kbps, ~0.270 bit/pixel
Аудио Rus: 48 kHz, 6 ch, ~448 kbps |den904|-Перевод - dsa69
За исходник для рипа спасибо arxivariys-Сэмпл / ImDB / Кинопоиск-

Скриншоты



MediaInfo

Общее
Формат : AVI
Формат/Информация : Audio Video Interleave
Размер файла : 1,46 Гбайт
Продолжительность : 1 ч. 35 м.
Общий поток : 2192 Кбит/сек
Программа кодирования : VirtualDubMod 1.5.10.2 (build 2540/release)
Библиотека кодирования : VirtualDubMod build 2540/release
Видео
Идентификатор : 0
Формат : MPEG-4 Visual
Профиль формата : Advanced Simple@L5
Параметр BVOP формата : 1
Параметр QPel формата : Нет
Параметр GMC формата : Без точки перехода
Параметр матрицы формата : Выборочная
Идентификатор кодека : XVID
Идентификатор кодека/Подсказка : XviD
Продолжительность : 1 ч. 35 м.
Битрейт : 1735 Кбит/сек
Ширина : 704 пикселя
Высота : 384 пикселя
Соотношение сторон : 1,85:1
Частота кадров : 23,976 кадра/сек
Цветовое пространство : YUV
Субдискретизация насыщенности : 4:2:0
Битовая глубина : 8 бит
Тип развёртки : Прогрессивная
Метод сжатия : С потерями
Бит/(Пиксели*Кадры) : 0.268
Размер потока : 1,15 Гбайт (79%)
Библиотека кодирования : XviD 73
Аудио
Идентификатор : 1
Формат : AC-3
Формат/Информация : Audio Coding 3
Расширение режима : CM (complete main)
Параметр Endianness формата : Big
Идентификатор кодека : 2000
Продолжительность : 1 ч. 35 м.
Вид битрейта : Постоянный
Битрейт : 448 Кбит/сек
Каналы : 6 каналов
Расположение каналов : Front: L C R, Side: L R, LFE
Частота : 48,0 КГц
Битовая глубина : 16 бит
Метод сжатия : С потерями
Размер потока : 305 Мбайт (20%)
Выравнивание : Разделение по промежуткам
Продолжительность промежутка : 42 мс. (1,00 видеокадр)
Время предзагрузки промежутка : 500 мс.
Скачать

Скачать торрент! Вундеркинды / The Prodigies (Антуан Шаррейрон / Antoine Charreyron) [2011, Канада, Франция, Великобритания, Индия, мультфильм, фантастика, BDRip] VO (den904)

Как скачивать? · Что такое торрент? · Рейтинг и ограничения

Сайт не распространяет и не хранит электронные версии произведений, а лишь предоставляет доступ к создаваемому пользователями каталогу ссылок на торрент-файлы, которые содержат только списки хеш-сумм

[Профиль] [ЛС]
Показать сообщения:    
Ответить на тему

Текущее время: Сегодня 22:33

Часовой пояс: GMT + 4



Вы не можете начинать темы
Вы не можете отвечать на сообщения
Вы не можете редактировать свои сообщения
Вы не можете удалять свои сообщения
Вы не можете голосовать в опросах
Вы не можете прикреплять файлы к сообщениям
Вы не можете скачивать файлы