Сказка о глупом мышонке (Ирина Собинова-Кассиль) [1981 г., Мультфильм, экранизация, SATRip]

Ответить на тему
 
Автор Сообщение

user ®

Стаж: 7 лет 7 месяцев

Сообщений: 20008

Пост Пост: #1 от 24-Сен-2013 11:40

[Цитировать]

Сказка о глупом мышонкеСтрана: СССР
Жанр: мультфильм, экранизация
Продолжительность: 0:09:39
Год выпуска: 1981
Выпущено: «Союзмультфильм»
Режиссёр: Ирина Собинова-Кассиль
Русские субтитры: нетОписание:По одноимённому стихотворению С. Я. Маршака.
Разонравился мышонку голос его собственной мамы, которая пела ему колыбельные, и стал он требовать няньку. Бедной мышке пришлось бегать по соседям и уговаривать их баюкать её неугомонного сыночка...

Режиссёр и команда

Режиссёр Ирина Собинова-Кассиль
сценарист Борис Степанцев
художники-постановщики: Д. Лобанова, Галина Мелько
аниматоры: Ольга Панокина, Лидия Маятникова
оператор Игорь Скидан-Босин
директор Белла Ходова
композитор Михаил Меерович
звукорежиссёр Борис Фильчиков
редактор Раиса Фричинская
куклы и декорации: Валерий Петров, Е. Дарикович, Владимир Алисов, Наталия Барковская, Светлана Знаменская, Виктор Гришин, Владимир Аббакумов, Александр Максимов, Павел Гусев, Галина Филиппова, Марина Чеснокова, Семён Этлис, Михаил Колтунов, Валентин Ладыгин
скульптор Наталия Гринберг
текст читает Ирина Собинова-Кассиль
Качество: SATRip
Формат: AVI
Видео: 720x544 (1.32:1), 25 fps, XviD build 64 ~2362 kbps avg, 0.24 bit/pixel
Аудио: 48 kHz, AC3 Dolby Digital, 2/0 (L,R) ch, ~192 kbps
Субтитры: отсутствуют

Подробные технические данные

ОбщееПолное имя : D:\Мульты\Skazka_o_glupom_myshonke_(1981,_SATRip).aviФормат : AVIФормат/Информация : Audio Video InterleaveРазмер файла : 177 МбайтПродолжительность : 9 м. 39 с.Общий поток : 2564 Кбит/секПрограмма кодирования : VirtualDubMod 1.5.10.2 (build 2540/release)Библиотека кодирования : VirtualDubMod build 2540/release
ВидеоИдентификатор : 0Формат : MPEG-4 VisualПрофиль формата : Advanced Simple@L5Параметр BVOP формата : 2Параметр QPel формата : НетПараметр GMC формата : Без точки переходаПараметр матрицы формата : ВыборочнаяИдентификатор кодека : XVIDИдентификатор кодека/Подсказка : XviDПродолжительность : 9 м. 39 с.Битрейт : 2362 Кбит/секШирина : 720 пикселейВысота : 544 пикселяСоотношение сторон : 4:3Частота кадров : 25,000 кадров/секЦветовое пространство : YUVСубдискретизация насыщенности : 4:2:0Битовая глубина : 8 битТип развёртки : ПрогрессивнаяМетод сжатия : С потерямиБит/(Пиксели*Кадры) : 0.241Размер потока : 163 Мбайт (92%)Библиотека кодирования : XviD 64
АудиоИдентификатор : 1Формат : AC-3Формат/Информация : Audio Coding 3Расширение режима : CM (complete main)Идентификатор кодека : 2000Продолжительность : 9 м. 39 с.Вид битрейта : ПостоянныйБитрейт : 192 Кбит/секКаналы : 2 каналаРасположение каналов : Front: L RЧастота : 48,0 КГцБитовая глубина : 16 битМетод сжатия : С потерямиРазмер потока : 13,3 Мбайт (7%)Выравнивание : Разделение по промежуткамПродолжительность промежутка : 40 мс. (1,00 видеокадр)Время предзагрузки промежутка : 500 мс.

Скриншоты

Скачать

Скачать торрент!

Как скачивать? · Что такое торрент? · Рейтинг и ограничения

Сайт не распространяет и не хранит электронные версии произведений, а лишь предоставляет доступ к создаваемому пользователями каталогу ссылок на торрент-файлы, которые содержат только списки хеш-сумм

[Профиль] [ЛС]
Показать сообщения:    
Ответить на тему

Текущее время: Сегодня 22:23

Часовой пояс: GMT + 4



Вы не можете начинать темы
Вы не можете отвечать на сообщения
Вы не можете редактировать свои сообщения
Вы не можете удалять свои сообщения
Вы не можете голосовать в опросах
Вы не можете прикреплять файлы к сообщениям
Вы не можете скачивать файлы