3096 дней / 3096 Tage (Шерри Хорман / Sherry Horman) [2013, Германия, драма, триллер, DVDRip] Sub Rus + Original Eng

Ответить на тему
 
Автор Сообщение

user ®

Стаж: 7 лет 7 месяцев

Сообщений: 20008

Пост Пост: #1 от 24-Сен-2013 11:40

[Цитировать]

-
-
-3096 дней / 3096 Tage-
-
- Страна: Германия
Жанр: драма, триллер, автобиография
Год выпуска:28 февраля 2013 г.
Продолжительность: 01:49:51
Перевод: Субтитры GlobalTrolle
Cубтитры: русские
Оригинальная аудиодорожка: английский
Режиссер: Шерри Хорман / Sherry Horman
В ролях: Туре Линдхардт
Антония Кэмпбелл-Хьюджес
Трине Дюрхольм
Дирбла Моллой
Амелия Пиджон
Эрни Мангольд
Эллен Швирс
Михаэль Гримм
Анджелина Ноа
Рёланд Визнеккер
Описание: Фильм основан на реальной истории похищения австрийской девочки Наташи Кампуш, совершенное бывшим техником Вольфгангом Приклопилом, когда ей было 10 лет. В его плену она провела более восьми лет, или 3096 дней.
Доп. информация: Автобиографичный фильм о Наташе Кампуш. Перевод выполнен по польским субтитрам. Огромная благодарность группе TLRG за источник.
Больши информации здесь.
Сэмпл:http://multi-up.com/905889
Качество видео: BRRip
Формат видео: AVI
Видео: XviD, 720*304, 1591 Kbps, FPS: 24.0
Аудио: AC-3, 384 Kbps, 48000 Hz. Channels: 5.1, ENG
Формат субтитров: softsub (SRT)

MediaInfo

E:\Новая папка\3096.Tage.2013.SUB.AC3.BRRip.XviD.avi
General
Complete name : E:\Новая папка\3096.Tage.2013.SUB.AC3.BRRip.XviD.avi
Format : AVI
Format/Info : Audio Video Interleave
File size : 1.45 GiB
Duration : 1h 49mn
Overall bit rate : 1 885 Kbps
Writing application : VirtualDubMod 1.5.10.2 (build 2540/release)
Writing library : VirtualDubMod build 2540/release
Video #0
ID : 0
Format : MPEG-4 Visual
Format profile : Advanced Simple@L5
Format settings, BVOP : 2
Format settings, QPel : No
Format settings, GMC : No warppoints
Format settings, Matrix : Default (H.263)
Muxing mode : Packed bitstream
Codec ID : XVID
Codec ID/Hint : XviD
Duration : 1h 49mn
Bit rate : 1 492 Kbps
Width : 720 pixels
Height : 304 pixels
Display aspect ratio : 2.35:1
Frame rate : 24.000 fps
Color space : YUV
Chroma subsampling : 4:2:0
Bit depth : 8 bits
Scan type : Progressive
Compression mode : Lossy
Bits/(Pixel*Frame) : 0.284
Stream size : 1.14 GiB (79%)
Writing library : XviD 64
Audio #1
ID : 1
Format : AC-3
Format/Info : Audio Coding 3
Mode extension : CM (complete main)
Format settings, Endianness : Big
Codec ID : 2000
Duration : 1h 49mn
Bit rate mode : Constant
Bit rate : 384 Kbps
Channel count : 6 channels
Channel positions : Front: L C R, Side: L R, LFE
Sampling rate : 48.0 KHz
Bit depth : 16 bits
Compression mode : Lossy
Stream size : 302 MiB (20%)
Alignment : Split accross interleaves
Interleave, duration : 42 ms (1.00 video frame)
Interleave, preload duration : 500 ms

Пример субтитров

17
00:03:33,244 --> 00:03:36,313
Наташа, пора вставать!
18
00:03:37,365 --> 00:03:39,300
Не буду повторять дважды.
19
00:03:42,444 --> 00:03:46,047
Я приготовила для тебя платье.
- я должна его одеть?
20
00:03:46,190 --> 00:03:48,425
Знаешь как долго я над ним работала?
21
00:03:48,604 --> 00:03:52,741
Другие девочки были бы только рады, если бы их мамы сшили им платья.
22
00:03:52,892 --> 00:03:57,730
Оно неплохое, но я выгляжу в нем толстой.
- Значит не ешь слишком много пирожных
23
00:04:09,667 --> 00:04:11,535
Чего копошишься?
24
00:04:13,454 --> 00:04:15,689
Мне еще надо на работу!
25
00:04:37,097 --> 00:04:39,532
Он снова водил тебя в бар?
26
00:04:42,467 --> 00:04:47,905
Дети не должны находится в баре,
Если он снова приведет тебя за полночь
27
00:04:48,294 --> 00:04:53,232
Это будет последний раз, когда ты его увидишь.
- Прекрати! Оставь меня одну. Я не была там.

Скриншот c названием фильма

Скриншоты



Скачать

Скачать торрент!

Как скачивать? · Что такое торрент? · Рейтинг и ограничения

Сайт не распространяет и не хранит электронные версии произведений, а лишь предоставляет доступ к создаваемому пользователями каталогу ссылок на торрент-файлы, которые содержат только списки хеш-сумм

[Профиль] [ЛС]
Показать сообщения:    
Ответить на тему

Текущее время: Сегодня 22:17

Часовой пояс: GMT + 4



Вы не можете начинать темы
Вы не можете отвечать на сообщения
Вы не можете редактировать свои сообщения
Вы не можете удалять свои сообщения
Вы не можете голосовать в опросах
Вы не можете прикреплять файлы к сообщениям
Вы не можете скачивать файлы