Фантуш / Funtoosh (Четан Ананд / Chetan Anand) [1956, Индия, Мелодрама, драма, DVDRip] VO (Nastia) + Original

Ответить на тему
 
Автор Сообщение

user ®

Стаж: 12 лет

Сообщений: 15125

Пост Пост: #1 от 24-Сен-2013 08:30

[Цитировать]

Фантуш / Funtoosh
Страна: Индия
Жанр: Мелодрама, драма
Год выпуска: 1956
Продолжительность: 01:57:34
Перевод: Одноголосый закадровый Nastia
Cубтитры: нет
Оригинальная аудиодорожка: хинди
Режиссер: Четан Ананд / Chetan Anand
В ролях: Дев Ананд, Шейла Рамани, Хаманд, Джагдиш Радж, Кум Кум, Кришна Дхаван, Индира, Хаммад, Бхагван Синха
Описание: Кардилал, стремясь погасить долги, хитростью заставил простодушного Рама Фантуша подписать страховку на его имя. После смерти Фантуша он бы получил страховку в размере 100 тысяч рупий. Поселив юношу в своем доме, Кардилал сделал еще одну ошибку, не приняв во внимание свою дочь Нилу. И все пошло не так как он задумал…
Доп. информация: Релиз
Перевод: larisa_k (Спасибо!)
Озвучка: Nastia (Спасибо!)
Релиз и сведение аудио: керелис (Спасибо!)
Сэмпл: http://multi-up.com/906177
Качество видео: DVDRip
Формат видео: AVI
Видео: XviD build 50, 560x416 (1.35:1), 24.975 fps, 1543 kbps avg
Аудио: Russian AC3 Dolby Digital, 48 kHz, 2/0 (L,R) ch, 192.00 kbps avg
Аудио 2: Hindi MPEG Layer 3, 44.100 kHz, 2/0 (L,R), 128.00 kbps avg

MediaInfo

General
Complete name : D:\Fantush.1956.DVDRip.XviD.BWTorrents.avi
Format : AVI
Format/Info : Audio Video Interleave
File size : 1.54 GiB
Duration : 1h 57mn
Overall bit rate : 1 879 Kbps
Writing application : VirtualDubModRus 1.5.10.2 (build 2542/release)
Writing library : VirtualDubMod build 2542/release
Video
ID : 0
Format : MPEG-4 Visual
Format profile : AdvancedSimple@L5
Format settings, BVOP : Yes
Format settings, QPel : No
Format settings, GMC : No warppoints
Format settings, Matrix : Default (H.263)
Codec ID : XVID
Codec ID/Hint : XviD
Duration : 1h 57mn
Bit rate : 1 544 Kbps
Width : 560 pixels
Height : 416 pixels
Display aspect ratio : 4/3
Frame rate : 24.975 fps
Resolution : 24 bits
Colorimetry : 4:2:0
Scan type : Progressive
Bits/(Pixel*Frame) : 0.265
Stream size : 1.27 GiB (82%)
Writing library : XviD 1.2.1 (UTC 2008-12-04)
Audio #1
ID : 1
Format : AC-3
Format/Info : Audio Coding 3
Codec ID : 2000
Duration : 1h 57mn
Bit rate mode : Constant
Bit rate : 192 Kbps
Channel(s) : 2 channels
Channel positions : L R
Sampling rate : 48.0 KHz
Stream size : 161 MiB (10%)
Alignment : Split accross interleaves
Interleave, duration : 40 ms (1.00 video frame)
Interleave, preload duration : 500 ms
Audio #2
ID : 2
Format : MPEG Audio
Format version : Version 1
Format profile : Layer 3
Codec ID : 55
Codec ID/Hint : MP3
Duration : 1h 57mn
Bit rate mode : Constant
Bit rate : 128 Kbps
Channel(s) : 2 channels
Sampling rate : 44.1 KHz
Resolution : 16 bits
Stream size : 108 MiB (7%)
Alignment : Split accross interleaves
Interleave, duration : 40 ms (1.00 video frame)
Interleave, preload duration : 500 ms

Скриншоты

Скачать

Скачать торрент! Фантуш / Funtoosh (Четан Ананд / Chetan Anand) [1956, Индия, Мелодрама, драма, DVDRip] VO (Nastia) + Original

Как скачивать? · Что такое торрент? · Рейтинг и ограничения

Сайт не распространяет и не хранит электронные версии произведений, а лишь предоставляет доступ к создаваемому пользователями каталогу ссылок на торрент-файлы, которые содержат только списки хеш-сумм

[Профиль] [ЛС]
Показать сообщения:    
Ответить на тему

Текущее время: Сегодня 12:09

Часовой пояс: GMT + 4



Вы не можете начинать темы
Вы не можете отвечать на сообщения
Вы не можете редактировать свои сообщения
Вы не можете удалять свои сообщения
Вы не можете голосовать в опросах
Вы не можете прикреплять файлы к сообщениям
Вы не можете скачивать файлы