Чего хотят мужчины (Андрей Канивченко) [2013, Россия, Мелодрама, HDTV 1080i]

Ответить на тему
 
Автор Сообщение

user ®

Стаж: 7 лет 7 месяцев

Сообщений: 20008

Пост Пост: #1 от 24-Сен-2013 02:10

[Цитировать]

Чего хотят мужчины
Страна: Россия
Студия: "Паламеда", и ПЦ "Фабула"
Жанр: Мелодрама
Год выпуска: 2013
Продолжительность: 01:31:35
Перевод: Не требуется
Cубтитры: Отсутствуют
Режиссер: Андрей Канивченко
В ролях: Станислав Бондаренко, Полина Стрельникова (Сыркина), Елена Дубровская, Алёна Полькина, Сергей Баталов и другие.
Описание: Ася и Алексей - самая счастливая пара. Скоро свадьба. Чтобы подзаработать на нее, Алексей уезжает в Москву, а через месяц сообщает Асе, что встретил другую. Асе кажется, что это нелепость, и нужно обязательно встретиться, чтобы выяснить отношения. Она отправляется за Алексеем. Случайный попутчик говорит Асе, что любимого можно вернуть. Просто нужно знать, чего хотят мужчины от своей избранницы. Небольшие изменения – и вот уже желаннее, чем Ася, для Алексея никого не будет. Ася решается...
Сэмпл: http://multi-up.com/905673
Доп. информация: Релиз -

Рип чистый. Без посторонних надписей. Выкладывается как есть.
Качество: HDTV 1080i
Контейнер: TS
Видео кодек: AVC
Аудио кодек: MP2
Видео: 1920x1080 (16:9) 25.000 fps 7 858 Kbps, 0.152 bit/pixel
Аудио: MPEG Audio 48000Hz stereo 192 Кбит/сек

Скриншот с названием фильма

Скриншоты


MI

GeneralID : 1 (0x1)Complete name : D:\Выкладка\Чего хотят мужчины (2013, Мелодрама, HDTV 1080i) (MYDIMKA).tsFormat : MPEG-TSFile size : 5.41 GiBDuration : 1h 31mnOverall bit rate mode : VariableOverall bit rate : 8 449 Kbps
VideoID : 2911 (0xB5F)Menu ID : 1 (0x1)Format : AVCFormat/Info : Advanced Video CodecFormat profile : High@L4.0Format settings, CABAC : YesFormat settings, ReFrames : 3 framesCodec ID : 27Duration : 1h 31mnBit rate : 7 838 KbpsWidth : 1 920 pixelsHeight : 1 080 pixelsDisplay aspect ratio : 16:9Frame rate : 25.000 fpsColor space : YUVChroma subsampling : 4:2:0Bit depth : 8 bitsScan type : MBAFFBits/(Pixel*Frame) : 0.151Stream size : 5.01 GiB (93%)
AudioID : 2912 (0xB60)Menu ID : 1 (0x1)Format : MPEG AudioFormat version : Version 1Format profile : Layer 2Codec ID : 3Duration : 1h 31mnBit rate mode : ConstantBit rate : 192 KbpsChannel count : 2 channelsSampling rate : 48.0 KHzCompression mode : LossyStream size : 126 MiB (2%)Language : Russian
Скачать

Скачать торрент!

Как скачивать? · Что такое торрент? · Рейтинг и ограничения

Сайт не распространяет и не хранит электронные версии произведений, а лишь предоставляет доступ к создаваемому пользователями каталогу ссылок на торрент-файлы, которые содержат только списки хеш-сумм

[Профиль] [ЛС]
Показать сообщения:    
Ответить на тему

Текущее время: Сегодня 06:27

Часовой пояс: GMT + 4



Вы не можете начинать темы
Вы не можете отвечать на сообщения
Вы не можете редактировать свои сообщения
Вы не можете удалять свои сообщения
Вы не можете голосовать в опросах
Вы не можете прикреплять файлы к сообщениям
Вы не можете скачивать файлы