Тепло наших тел / Warm Bodies (Джонатан Левин / Jonathan Levine) [2013, США, Ужасы, мелодрама, комедия, BDRip 720p] [Open Matte] Dub + VO + Original (Eng)

Ответить на тему
 
Автор Сообщение

user ®

Стаж: 7 лет 7 месяцев

Сообщений: 20008

Пост Пост: #1 от 24-Сен-2013 02:10

[Цитировать]

Тепло наших тел / Warm Bodies

«Он всё ещё мёртв, но сердце снова бьётся»
Страна: США
Студия: Summit Entertainment, Make Movies, Mandeville Films
Жанр: ужасы, мелодрама, комедия
Год выпуска: 2013
Продолжительность: 01:37:45
Перевод 1: Профессиональный (дублированный) НТВ+ [Кинорейс]
Перевод 2: Одноголосый закадровый [den904]
Оригинальная аудиодорожка: английская
Субтитры: Русские (Denino), английские
Режиссер: Джонатан Левин / Jonathan Levine
В ролях: Николас Холт, Тереза Палмер, Аналей Типтон, Роб Кордри, Дэйв Франко, Джон Малкович, Кори Хардрикт, Дэниэл Риндресс-Кей, Винсент Леклерк, Клиффорд ЛеДюк-Вайанкур и др.
Описание: Мир поражён чумой и стоит на грани вымирания. Покойники ходят по земле и норовят употребить в пищу живых, которые, оставшись в катастрофическом меньшинстве, с трудом держат оборону. Перемены начинаются, когда один зомби, чьё имя при жизни начиналось на «Р», спасает девушку вместо того, чтобы её съесть. Дружба, завязавшаяся между представителями враждующих сторон, грозит обоим самыми нехорошими последствиями. Но Р и Джули, сами того не подозревая, держат в руках простой и единственный ключ к спасению гибнущего мира.

Качество: BDRip 720p [EbP]
Контейнер: MKV
Видео: MPEG-4 AVC / 9177 kbps / 1280x720 / 23.976 fps / High Profile 4.1
Аудио 1: Русский дубляж НТВ+ [Кинорейс] (чистый звук) / Dolby Digital / 2.0 / 48 kHz / 320 kbps
Аудио 2: Русский одноголосый den904 / DTS / 5.1 / 48 kHz / 1536 kbps
Аудио 3: Английский / DTS / 5.1 / 48 kHz / 1536 kbps
Субтитры: русские, английские
Навигация по главам: да
Сравнение версии 2.35:1 (сверху) и 1.78:1 (снизу, эта раздача)

MediaInfo

Общее
Уникальный идентификатор : 191540798207812797251975248866721004548 (0x90196A7760227480A90CF40E57ADFC04)
Полное имя : D:\Фильмы\Тепло наших тел [2013.BDRip.720p.OpenMatte].mkv
Формат : Matroska
Версия формата : Version 2
Размер файла : 8,68 Гбайт
Продолжительность : 1 ч. 37 м.
Общий поток : 12,7 Мбит/сек
Название фильма : Warm Bodies
Дата кодирования : UTC 2013-09-22 22:03:11
Программа кодирования : mkvmerge v4.0.0 ('The Stars were mine') сборка от Jun 6 2010 16:18:42
Библиотека кодирования : libebml v1.0.0 + libmatroska v1.0.0
Видео
Идентификатор : 1
Формат : AVC
Формат/Информация : Advanced Video Codec
Профиль формата : High@L4.1
Параметр CABAC формата : Да
Параметр ReFrames формата : 9 кадров
Идентификатор кодека : V_MPEG4/ISO/AVC
Продолжительность : 1 ч. 37 м.
Битрейт : 9117 Кбит/сек
Ширина : 1280 пикселей
Высота : 720 пикселей
Соотношение сторон : 16:9
Режим частоты кадров : Постоянный
Частота кадров : 23,976 кадра/сек
Цветовое пространство : YUV
Субдискретизация насыщенности : 4:2:0
Битовая глубина : 8 бит
Тип развёртки : Прогрессивная
Бит/(Пиксели*Кадры) : 0.413
Размер потока : 6,23 Гбайт (72%)
Библиотека кодирования : x264 core 130 r2273 b3065e6
Настройки программы : cabac=1 / ref=9 / deblock=1:-3:-3 / analyse=0x3:0x133 / me=umh / subme=10 / psy=1 / psy_rd=1.05:0.00 / mixed_ref=1 / me_range=64 / chroma_me=1 / trellis=2 / 8x8dct=1 / cqm=0 / deadzone=21,11 / fast_pskip=0 / chroma_qp_offset=-2 / threads=12 / lookahead_threads=2 / sliced_threads=0 / nr=0 / decimate=0 / interlaced=0 / bluray_compat=0 / constrained_intra=0 / bframes=8 / b_pyramid=2 / b_adapt=2 / b_bias=0 / direct=3 / weightb=1 / open_gop=0 / weightp=2 / keyint=250 / keyint_min=23 / scenecut=40 / intra_refresh=0 / rc=crf / mbtree=0 / crf=16.5 / qcomp=0.75 / qpmin=0 / qpmax=69 / qpstep=4 / ip_ratio=1.30 / pb_ratio=1.30 / aq=1:0.80
Default : Нет
Forced : Нет
Аудио #1
Идентификатор : 2
Формат : AC-3
Формат/Информация : Audio Coding 3
Расширение режима : CM (complete main)
Параметр Endianness формата : Big
Идентификатор кодека : A_AC3
Продолжительность : 1 ч. 37 м.
Вид битрейта : Постоянный
Битрейт : 320 Кбит/сек
Каналы : 2 канала
Расположение каналов : Front: L R
Частота : 48,0 КГц
Битовая глубина : 16 бит
Метод сжатия : С потерями
Размер потока : 224 Мбайт (3%)
Заголовок : Dub NTV+
Язык : Russian
Default : Да
Forced : Нет
Аудио #2
Идентификатор : 3
Формат : DTS
Формат/Информация : Digital Theater Systems
Режим : 16
Параметр Endianness формата : Big
Идентификатор кодека : A_DTS
Продолжительность : 1 ч. 37 м.
Вид битрейта : Постоянный
Битрейт : 1510 Кбит/сек
Каналы : 6 каналов
Расположение каналов : Front: L C R, Side: L R, LFE
Частота : 48,0 КГц
Битовая глубина : 24 бит
Метод сжатия : С потерями
Задержка видео : 11 мс.
Размер потока : 1,03 Гбайт (12%)
Заголовок : Одноголосый закадровый den904
Язык : Russian
Default : Нет
Forced : Нет
Аудио #3
Идентификатор : 4
Формат : DTS
Формат/Информация : Digital Theater Systems
Режим : 16
Параметр Endianness формата : Big
Идентификатор кодека : A_DTS
Продолжительность : 1 ч. 37 м.
Вид битрейта : Постоянный
Битрейт : 1509 Кбит/сек
Каналы : 6 каналов
Расположение каналов : Front: L C R, Side: L R, LFE
Частота : 48,0 КГц
Битовая глубина : 24 бит
Метод сжатия : С потерями
Задержка видео : 11 мс.
Размер потока : 1,03 Гбайт (12%)
Заголовок : Оригинал
Язык : English
Default : Нет
Forced : Нет
Текст #1
Идентификатор : 5
Формат : UTF-8
Идентификатор кодека : S_TEXT/UTF8
Идентификатор кодека/Информация : UTF-8 Plain Text
Заголовок : Denino
Язык : Russian
Default : Нет
Forced : Нет
Текст #2
Идентификатор : 6
Формат : UTF-8
Идентификатор кодека : S_TEXT/UTF8
Идентификатор кодека/Информация : UTF-8 Plain Text
Заголовок : Full
Язык : English
Default : Нет
Forced : Нет
Меню
00:00:00.000 : en:00:00:00.000
00:06:39.858 : en:00:06:39.858
00:12:24.202 : en:00:12:24.202
00:19:24.580 : en:00:19:24.580
00:24:22.920 : en:00:24:22.920
00:31:17.626 : en:00:31:17.626
00:40:52.408 : en:00:40:52.408
00:45:32.563 : en:00:45:32.563
00:49:56.285 : en:00:49:56.285
00:55:44.091 : en:00:55:44.091
01:02:25.492 : en:01:02:25.492
01:08:49.876 : en:01:08:49.876
01:14:08.861 : en:01:14:08.861
01:17:27.393 : en:01:17:27.393
01:24:00.702 : en:01:24:00.702
01:30:30.759 : en:01:30:30.759

Скриншоты

Скачать

Скачать торрент!

Как скачивать? · Что такое торрент? · Рейтинг и ограничения

Сайт не распространяет и не хранит электронные версии произведений, а лишь предоставляет доступ к создаваемому пользователями каталогу ссылок на торрент-файлы, которые содержат только списки хеш-сумм

[Профиль] [ЛС]
Показать сообщения:    
Ответить на тему

Текущее время: Сегодня 14:32

Часовой пояс: GMT + 4



Вы не можете начинать темы
Вы не можете отвечать на сообщения
Вы не можете редактировать свои сообщения
Вы не можете удалять свои сообщения
Вы не можете голосовать в опросах
Вы не можете прикреплять файлы к сообщениям
Вы не можете скачивать файлы