Протектор / Protektor (Марек Найбрт / Marek Najbrt) [2009, Чехия, Германия, драма, мелодрама, военный, исторический, HDTVRip 720p] VO (KENUM) + Original Cze + Sub Rus

Ответить на тему
 
Автор Сообщение

user ®

Стаж: 7 лет 7 месяцев

Сообщений: 20008

Пост Пост: #1 от 24-Сен-2013 02:10

[Цитировать]

Протектор / Protektor
Страна: Чехия, Германия
Студия: Box! Film- und Fernsehproduktions GmbH, Ceska Televize, Negativ Ltd.
Жанр: драма, мелодрама, военный, исторический
Год выпуска: 2009
Продолжительность: 01:38:07
Перевод: одноголосый закадровый /Владислав Данилов aka KENUM/
Cубтитры: русские, английские и др.
Оригинальная аудиодорожка: чешский
Режиссер: Марек Найбрт / Marek Najbrt
В ролях: Матиас Брандт /Matthias Brandt/, Ян Бударж /Jan Budar/, Марек Дэниэл /Marek Daniel/, Cyril Drozda /Цирил Дрозда/, Томаш Мечасек /Tomas Mechacek/, Клара Мелишкова /Klara Meliskova/, Мартин Мышичка /Martin Mysicka/, Леош Нога /Leos Noha/, Сандра Новакова /Sandra Novakova/, Иржи Орнест /Jiri Ornest/, Яна Плодкова /Jana Plodkova/, Josef Polasek /Жозеф Полашек/, Жан Ржегак /Jan Rehak/, Симон Шварц /Simon Schwarz/
Описание:История одной пражской семьи на фоне судьбоносных событий. 1938 год. Посредственный радиожурналист Эмиль и восходящая звезда кино Гана. Карьера Ганы только начинается, ее ждет блестящее будущее. Но проходит менее полугода, и ситуация кардинально меняется. Чехию занимают немецкие войска, страна переходит под протекторат Третьего Рейха. Все, на что надеялась Гана, рушится. Она - еврейка, а евреям не место в гитлеровской Европе. Зато Эмиль делает стремительную карьеру, становясь "рупором" фашистской пропаганды. Он продолжает любить свою жену и делает все, чтобы сохранить семью и жизнь любимой женщины. На что готов человек ради любви? На какие поступки, предательства и измены он может пойти?КиноПоиск
IMDb

Доп. информация

Исходником (Protektor.2009.720p.HDTV.x264-DON.mkv) поделился edus67, спасибо.
Русская дорожка получена наложением "чистого голоса" (спасибо KENUM) на центральный канал оригинальной.
Сэмпл: http://multi-up.com/906001
Тип релиза: HDTVRip 720p
Контейнер: MKV
Видео: MPEG-4 AVC Video / 5200 kbps / 1280 x 692 p / 25 fps / 1.85 : 1 / High Profile 4.1
Аудио 1: Russian / Dolby Digital Audio / 5.1 / 48 kHz / 448 kbps
Аудио 2: Czech / Dolby Digital Audio / 5.1 / 48 kHz / 448 kbps
Формат субтитров: softsub (SRT)

MediaInfo

Общее
Уникальный идентификатор : 225211375892926318696731281554736646199 (0xA96E221DA5BCF65B98420D23357F8837)
Полное имя : d:\Protektor.2009.720p.HDTV.x264-DON.RUS.mkv
Формат : Matroska
Версия формата : Version 2
Размер файла : 4,18 Гбайт
Продолжительность : 1 ч. 38 м.
Общий поток : 6097 Кбит/сек
Название фильма : Protektor (2009)
Дата кодирования : UTC 2013-09-22 16:38:31
Программа кодирования : mkvmerge v5.4.0 ('Piper') built on Mar 10 2012 13:34:39
Библиотека кодирования : libebml v1.2.3 + libmatroska v1.3.0
Видео
Идентификатор : 1
Формат : AVC
Формат/Информация : Advanced Video Codec
Профиль формата : High@L4.1
Параметр CABAC формата : Да
Параметр ReFrames формата : 9 кадров
Идентификатор кодека : V_MPEG4/ISO/AVC
Продолжительность : 1 ч. 38 м.
Битрейт : 5200 Кбит/сек
Ширина : 1280 пикселей
Высота : 692 пикселя
Соотношение сторон : 1,85:1
Режим частоты кадров : Постоянный
Частота кадров : 25,000 кадров/сек
Цветовое пространство : YUV
Субдискретизация насыщенности : 4:2:0
Битовая глубина : 8 бит
Тип развёртки : Прогрессивная
Бит/(Пиксели*Кадры) : 0.235
Размер потока : 3,48 Гбайт (83%)
Заголовок : Protektor.2009.720p.HDTV.x264-DON
Библиотека кодирования : x264 core 120 r2120 0c7dab9
Настройки программы : cabac=1 / ref=9 / deblock=1:-3:-3 / analyse=0x3:0x133 / me=umh / subme=10 / psy=1 / psy_rd=1.15:0.15 / mixed_ref=1 / me_range=32 / chroma_me=1 / trellis=2 / 8x8dct=1 / cqm=0 / deadzone=21,11 / fast_pskip=0 / chroma_qp_offset=-3 / threads=12 / sliced_threads=0 / nr=0 / decimate=0 / interlaced=0 / bluray_compat=0 / constrained_intra=0 / bframes=7 / b_pyramid=2 / b_adapt=2 / b_bias=0 / direct=3 / weightb=1 / open_gop=0 / weightp=2 / keyint=250 / keyint_min=25 / scenecut=40 / intra_refresh=0 / rc_lookahead=60 / rc=2pass / mbtree=1 / bitrate=5200 / ratetol=1.0 / qcomp=0.75 / qpmin=0 / qpmax=69 / qpstep=4 / cplxblur=20.0 / qblur=0.5 / vbv_maxrate=50000 / vbv_bufsize=62500 / nal_hrd=none / ip_ratio=1.40 / aq=1:0.80
Язык : Czech
Default : Да
Forced : Нет
Аудио #1
Идентификатор : 2
Формат : AC-3
Формат/Информация : Audio Coding 3
Расширение режима : CM (complete main)
Параметр Endianness формата : Big
Идентификатор кодека : A_AC3
Продолжительность : 1 ч. 38 м.
Вид битрейта : Постоянный
Битрейт : 448 Кбит/сек
Каналы : 6 каналов
Расположение каналов : Front: L C R, Side: L R, LFE
Частота : 48,0 КГц
Битовая глубина : 16 бит
Метод сжатия : С потерями
Размер потока : 314 Мбайт (7%)
Заголовок : Kenum
Язык : Russian
Default : Да
Forced : Нет
Аудио #2
Идентификатор : 3
Формат : AC-3
Формат/Информация : Audio Coding 3
Расширение режима : CM (complete main)
Параметр Endianness формата : Big
Идентификатор кодека : A_AC3
Продолжительность : 1 ч. 38 м.
Вид битрейта : Постоянный
Битрейт : 448 Кбит/сек
Каналы : 6 каналов
Расположение каналов : Front: L C R, Side: L R, LFE
Частота : 48,0 КГц
Битовая глубина : 16 бит
Метод сжатия : С потерями
Размер потока : 314 Мбайт (7%)
Язык : Czech
Default : Нет
Forced : Нет
Текст #1
Идентификатор : 4
Формат : UTF-8
Идентификатор кодека : S_TEXT/UTF8
Идентификатор кодека/Информация : UTF-8 Plain Text
Язык : Russian
Default : Нет
Forced : Нет
Текст #2
Идентификатор : 5
Формат : UTF-8
Идентификатор кодека : S_TEXT/UTF8
Идентификатор кодека/Информация : UTF-8 Plain Text
Язык : English
Default : Нет
Forced : Нет
Текст #3
Идентификатор : 6
Формат : UTF-8
Идентификатор кодека : S_TEXT/UTF8
Идентификатор кодека/Информация : UTF-8 Plain Text
Язык : Italian
Default : Нет
Forced : Нет
Текст #4
Идентификатор : 7
Формат : UTF-8
Идентификатор кодека : S_TEXT/UTF8
Идентификатор кодека/Информация : UTF-8 Plain Text
Язык : Polish
Default : Нет
Forced : Нет
Текст #5
Идентификатор : 8
Формат : UTF-8
Идентификатор кодека : S_TEXT/UTF8
Идентификатор кодека/Информация : UTF-8 Plain Text
Язык : Spanish
Default : Нет
Forced : Нет

Скриншоты

Скачать

Скачать торрент!

Как скачивать? · Что такое торрент? · Рейтинг и ограничения

Сайт не распространяет и не хранит электронные версии произведений, а лишь предоставляет доступ к создаваемому пользователями каталогу ссылок на торрент-файлы, которые содержат только списки хеш-сумм

[Профиль] [ЛС]
Показать сообщения:    
Ответить на тему

Текущее время: Сегодня 05:12

Часовой пояс: GMT + 4



Вы не можете начинать темы
Вы не можете отвечать на сообщения
Вы не можете редактировать свои сообщения
Вы не можете удалять свои сообщения
Вы не можете голосовать в опросах
Вы не можете прикреплять файлы к сообщениям
Вы не можете скачивать файлы