Пьета / Pieta (Ким Ки-Дук / Kim Ki-duk) [2012, Южная Корея, драма, BDRip] MVO (GREEN TEA) + MVO

Ответить на тему
 
Автор Сообщение

user ®

Стаж: 13 лет

Сообщений: 15071

Пост Пост: #1 от 23-Сен-2013 20:55

[Цитировать]

Пьета / Pieta
Страна: Южная Корея
Жанр: драма
Год выпуска: 2012
Продолжительность: 01:42:49-Перевод: Любительский (многоголосый закадровый) GREEN TEA
Перевод 2: Профессиональный (многоголосый закадровый)
Cубтитры: нет
Оригинальная аудиодорожка: корейский-Режиссер: Ким Ки-Дук / Kim Ki-duk-В ролях: Чо Мин Су, Ли Чжон Чжин, У Ки Хон, Кан Ын Чжин, Чо Чжэ Рен, Квон Се Ин, Джин Йонг Вук, Ю Ха Бок, Ким Чжэ Рок, Чин Ён-Ок-Описание: Одинокий тридцатилетний сеулец Ли Кан До зарабатывает вымогательством денег у кустарей, задолжавших местному ростовщику. Неплательщиков Кан До калечит, имитируя несчастный случай, чтобы те могли получить страховку и отдать долг. Однажды на пороге его дома появляется женщина, которая называет себя его матерью, бросившей его много лет назад. Подвергнув ее унижениям, Кан До постепенно принимает ее в свой дом. Обретение семьи заставляет его изменить свое отношение к жизни.-Сэмпл: http://multi-up.com/906044-Доп. информация:
Релиз-группа KZ:
Внимание! Фильм для аудитории 18+
Присутствует ненормативная лексика!

Награды

Азиатская киноакадемия, 2013 год
Номинации (3):
Лучший фильм
Лучшая женская роль (Чо Мин Су)
Лучший режиссер (Ким Ки Дук)
Венецианский кинофестиваль, 2012 год
Победитель (5):
Золотой лев
Малый золотой лев
Награда имени Назарено Таддеи
Золотая мышь
Leoncino d'Oro Agiscuola Award

Интересно

* Ким Ки Дук взял своё название фильма от имени скульптурного шедевра Микеланджело Буонарроти, пьеты (изображения скорбящей Девы Марии при снятии Спасителя с креста) «Оплакивание Христа».
*Южная Корея выдвинула этот фильм на 85-ю премию «Оскар» в номинации «Лучший фильм на иностранном языке».
* Премьера фильма «Пьета» состоялась 4 сентября в рамках 69-го Венецианского кинофестиваля, на котором лента Ким Ки Дука получила главный приз — «Золотого Льва». Вообще, первое место на фестивале должно было достаться картине «Мастер» Пола Томаса Андерсона, но жюри не могло присвоить больше двух главных наград одному фильму («Мастер» уже успел получить своё за главную роль и режиссуру), поэтому приз ушёл «Пьете».
* Пресса отметила сильный контраст между первой и второй половинами фильма «Пьета»: жестокое до тошнотворной степени начало уступает место тонкой психологической драме, где в конечном итоге даже находится немного места и для комедийных элементов (правда, исключительно чёрного характера). Также зрителей и жюри впечатлила выдающаяся актёрская игра, особенно по части «химии» между матерью и сыном, отношения между которыми проходят несколько интересных этапов: унижение, раскаяние, любовь и месть.
* Кроме того, ряд журналистов считает, что фильм «Пьета» не столько авторское кино, сколько коммерческое, способное привлечь широкого зрителя особой жестокостью, циничным юмором, животным насилием и прочими одиозными вещами, пользующиеся особым спросом. Впрочем, новую работу Ким Ки Дука назвать традиционным развлекательным фильмом всё-таки сложно.
* К слову, бюджет «Пьеты» составил какие-то 100 тыс. долларов — смешная по нынешним меркам сумма, при виде которой упал бы в обморок любой голливудский киношник.
-Качество видео: BDRip
Формат видео: AVI
Видео: 704x384 (1.83:1), 23.976 fps, XviD MPEG-4 ~2129 kbps avg, 0.33 bit/pixel
Аудио: 48 kHz, AC3 Dolby Digital, 3/2 (L,C,R,l,r) + LFE ch, ~448.00 kbps avg
Аудио 2: 48 kHz, AC3 Dolby Digital, 3/2 (L,C,R,l,r) + LFE ch, ~448.00 kbps avg

MediaInfo

Format : AVI
Format/Info : Audio Video Interleave
Format profile : OpenDML
File size : 2.18 GiB
Duration : 1h 42mn
Overall bit rate : 3 032 Kbps
Writing application : VirtualDubMod 1.5.10.2 (build 2540/release)
Writing library : VirtualDubMod build 2540/release
Video
ID : 0
Format : MPEG-4 Visual
Format profile : Advanced Simple@L5
Format settings, BVOP : 1
Format settings, QPel : No
Format settings, GMC : No warppoints
Format settings, Matrix : Custom
Codec ID : XVID
Codec ID/Hint : XviD
Duration : 1h 42mn
Bit rate : 2 118 Kbps
Width : 704 pixels
Height : 384 pixels
Display aspect ratio : 16:9
Frame rate : 23.976 fps
Color space : YUV
Chroma subsampling : 4:2:0
Bit depth : 8 bits
Scan type : Progressive
Compression mode : Lossy
Bits/(Pixel*Frame) : 0.327
Stream size : 1.52 GiB (70%)
Writing library : XviD 72
Audio #1
ID : 1
Format : AC-3
Format/Info : Audio Coding 3
Mode extension : CM (complete main)
Codec ID : 2000
Duration : 1h 42mn
Bit rate mode : Constant
Bit rate : 448 Kbps
Channel(s) : 6 channels
Channel positions : Front: L C R, Side: L R, LFE
Sampling rate : 48.0 KHz
Bit depth : 16 bits
Compression mode : Lossy
Stream size : 329 MiB (15%)
Alignment : Split accross interleaves
Interleave, duration : 42 ms (1.00 video frame)
Interleave, preload duration : 500 ms
Audio #2
ID : 2
Format : AC-3
Format/Info : Audio Coding 3
Mode extension : CM (complete main)
Codec ID : 2000
Duration : 1h 42mn
Bit rate mode : Constant
Bit rate : 448 Kbps
Channel(s) : 6 channels
Channel positions : Front: L C R, Side: L R, LFE
Sampling rate : 48.0 KHz
Bit depth : 16 bits
Compression mode : Lossy
Delay relative to video : 1s 64ms
Stream size : 329 MiB (15%)
Alignment : Split accross interleaves
Interleave, duration : 42 ms (1.00 video frame)
Interleave, preload duration : 500 ms

Скриншот c названием фильма

Скриншоты

Скачать

Скачать торрент! Пьета / Pieta (Ким Ки-Дук / Kim Ki-duk) [2012, Южная Корея, драма, BDRip] MVO (GREEN TEA) + MVO

Как скачивать? · Что такое торрент? · Рейтинг и ограничения

Сайт не распространяет и не хранит электронные версии произведений, а лишь предоставляет доступ к создаваемому пользователями каталогу ссылок на торрент-файлы, которые содержат только списки хеш-сумм

[Профиль] [ЛС]
Показать сообщения:    
Ответить на тему

Текущее время: Сегодня 10:54

Часовой пояс: GMT + 4



Вы не можете начинать темы
Вы не можете отвечать на сообщения
Вы не можете редактировать свои сообщения
Вы не можете удалять свои сообщения
Вы не можете голосовать в опросах
Вы не можете прикреплять файлы к сообщениям
Вы не можете скачивать файлы