Конец света 2013: Апокалипсис по-голливудски / This Is the End / Это конец (Evan Goldberg / Seth Rogen) [2013, США, комедия, фэнтези, HDRip] Original + Sub Rus [Effx]

Ответить на тему
 
Автор Сообщение

user ®

Стаж: 7 лет 7 месяцев

Сообщений: 20008

Пост Пост: #1 от 23-Сен-2013 14:35

[Цитировать]

Конец света 2013: Апокалипсис по-голливудски / This Is the End / Это конец
-Страна: США
Жанр: комедия, фэнтези
Год выпуска: 2013
Продолжительность: 01:46:41-Перевод: Субтитры [Effx]
Cубтитры: русские
Оригинальная аудиодорожка: английский-Режиссер: Ивэн Голдберг / Evan Goldber, Сет Роген / Seth Rogen
В ролях: Азиз Ансари, Джей Баручел, Джеймс Франко, Джона Хилл, Дэвид Крамхольц, Дэнни МакБрайд, Рианна, Крэйг Робинсон, Сет Роген, Джейсон Сигел, Эмма Уотсон-Описание: Несколько весьма эксцентричных приятелей оказываются запертыми в одной комнате в течение довольно долгого времени. Всё бы — ничего, если бы они не были уверены в скорейшем наступлении конца света.- -Доп. информация: Раздача для тех, кто считает что дубляж убивает все шутки, ну и просто для тех, кто любит смотреть кино в оригинале.-Осторожно!!!
В переводе присутствует ненормативная лексика!
-Сэмпл: Скачать-Качество видео: HDRip (источник неизвестен)
Формат видео: AVI
Видео: Xvid 720x304 23.976fps 1495kbps
Аудио: Dolby AC3 48000Hz 6ch 448kbps [English]
Формат субтитров: softsub (SRT)-

MediaInfo

General
Complete name : E:\This is the End 2013 HDRip [Effx]\This is the End 2013 HDRip [Effx].avi
Format : AVI
Format/Info : Audio Video Interleave
File size : 1.46 GiB
Duration : 1h 46mn
Overall bit rate : 1 953 Kbps
Writing application : VirtualDubMod 1.5.10.3 | www.virtualdub-fr.org || (build 2550/release)
Writing library : VirtualDubMod build 2550/release
Video
ID : 0
Format : MPEG-4 Visual
Format profile : Advanced Simple@L5
Format settings, BVOP : 3
Format settings, QPel : No
Format settings, GMC : No warppoints
Format settings, Matrix : Default (MPEG)
Codec ID : XVID
Codec ID/Hint : XviD
Duration : 1h 46mn
Bit rate : 1 496 Kbps
Width : 720 pixels
Height : 304 pixels
Display aspect ratio : 2.35:1
Frame rate : 23.976 fps
Color space : YUV
Chroma subsampling : 4:2:0
Bit depth : 8 bits
Scan type : Progressive
Compression mode : Lossy
Bits/(Pixel*Frame) : 0.285
Stream size : 1.11 GiB (77%)
Writing library : XviD 1.2.1 (UTC 2008-12-04)
Audio
ID : 1
Format : AC-3
Format/Info : Audio Coding 3
Mode extension : CM (complete main)
Format settings, Endianness : Big
Codec ID : 2000
Duration : 1h 46mn
Bit rate mode : Constant
Bit rate : 448 Kbps
Channel(s) : 6 channels
Channel positions : Front: L C R, Side: L R, LFE
Sampling rate : 48.0 KHz
Bit depth : 16 bits
Compression mode : Lossy
Stream size : 342 MiB (23%)
Alignment : Split accross interleaves
Interleave, duration : 42 ms (1.00 video frame)
Interleave, preload duration : 500 ms

Скриншот c названием фильма

Скриншоты

Пример субтитров

15
00:01:35,555 --> 00:01:37,098
Это будут самые лучшие выходные, чувак.
16
00:01:37,515 --> 00:01:39,684
- Положись на меня.
- Я не хочу все испортить.
17
00:01:39,976 --> 00:01:41,478
- Сет Роген!
- Черт, опять. Привет.
18
00:01:41,561 --> 00:01:42,937
- Как дела, парень?
- Да, хорошо.
19
00:01:43,021 --> 00:01:45,774
Так ты, типа, всегда играешь,
одного и того же парня, в каждом фильме.
20
00:01:45,857 --> 00:01:47,567
Когда ты начнешь уже
нормально играть в фильмах?
21
00:01:47,650 --> 00:01:48,651
Хорошо, спасибо.
22
00:01:48,735 --> 00:01:50,737
Ну сделай хоть что-то.
Улыбнись хотя бы.
23
00:01:50,820 --> 00:01:52,113
Ну же, покажи улыбку Сета Рогена .
24
00:01:53,156 --> 00:01:54,616
Народ, это Сет Роген.
25
00:01:54,699 --> 00:01:57,952
И так, я прилетел. Я тут.
Мы сказали, друг другу привет.
26
00:01:58,036 --> 00:02:01,039
Можем ли мы, пойти в гребаный фаст-фуд?
Скачать

Скачать торрент!

Как скачивать? · Что такое торрент? · Рейтинг и ограничения

Сайт не распространяет и не хранит электронные версии произведений, а лишь предоставляет доступ к создаваемому пользователями каталогу ссылок на торрент-файлы, которые содержат только списки хеш-сумм

[Профиль] [ЛС]
Показать сообщения:    
Ответить на тему

Текущее время: Сегодня 14:48

Часовой пояс: GMT + 4



Вы не можете начинать темы
Вы не можете отвечать на сообщения
Вы не можете редактировать свои сообщения
Вы не можете удалять свои сообщения
Вы не можете голосовать в опросах
Вы не можете прикреплять файлы к сообщениям
Вы не можете скачивать файлы