Лама-мститель / Смертельная акула / The Lama Avenger / Der Killerhai / The Three Avengers / Da chu tou (Вонг Ва-Кей / Wong Wah-Kei) [1979, Гонконг, боевик, боевые искусства, комедия, VHSRip] VO

Ответить на тему
 
Автор Сообщение

user ®

Стаж: 11 лет

Сообщений: 15151

Пост Пост: #1 от 23-Сен-2013 11:25

[Цитировать]

Лама-мститель / The Lama Avenger / The Three Avengers / Da chu tou
Страна: Гонконг
Жанр: боевик, боевые искусства, комедия
Год выпуска: 1979
Продолжительность: 01:13:59
Перевод: Одноголосый закадровый
Cубтитры: нет
Режиссер: Вонг Ва-Кей / Wong Wah-Kei
В ролях: Брюс Лай / Bruce Li, Чин Юэт-Санг, Лам Као и много других лиц китайской национальности
Описание: Двое неразлучных друзей (Брюс Лай и Чин Юэт-Санг) вынуждены уйти из школы, в которой их обучали кунгфу, и поселяются у тети одного из них. Но этот дом уже облюбовали застройщики, которые не остановятся ни перед чем, лишь бы заполучить его в свое распоряжение. В том числе и перед тем, чтобы решить дело силой.
Доп. информация: Оцифровка VHS (личный архив) и получение VHSRip alenavova
Качество видео: VHSRip
Формат видео: AVI
Видео: 656x320 (2.05:1), 25 fps, XviD build 47 ~1269 kbps avg, 0.24 bit/pixel
Аудио: 48 kHz, MPEG Layer 3, 2 ch, ~128.00 kbps avg

MediaInfo

Смертельная акула - Da chu tou [Rip by alenavova].avi
Format : AVI
Format/Info : Audio Video Interleave
File size : 745 MiB
Duration : 1h 13mn
Overall bit rate : 1 408 Kbps
Movie name : Смертельная акула - Da chu tou [Rip by alenavova]
Director : Rip by alenavova
Writing application : VirtualDubMod 1.5.10.2 (build 2540/release)
Copyright : Edich2
Comment :
Video
ID : 0
Format : MPEG-4 Visual
Format profile : Advanced Simple@L5
Format settings, BVOP : 1
Format settings, QPel : No
Format settings, GMC : No warppoints
Format settings, Matrix : Default (H.263)
Codec ID : XVID
Codec ID/Hint : XviD
Duration : 1h 13mn
Bit rate : 1 270 Kbps
Width : 656 pixels
Height : 320 pixels
Display aspect ratio : 2.050
Frame rate : 25.000 fps
Color space : YUV
Chroma subsampling : 4:2:0
Bit depth : 8 bits
Scan type : Progressive
Compression mode : Lossy
Bits/(Pixel*Frame) : 0.242
Stream size : 672 MiB (90%)
Writing library : XviD 1.2.0.dev47 (UTC 2006-11-01)
Audio
ID : 1
Format : MPEG Audio
Format version : Version 1
Format profile : Layer 3
Mode : Joint stereo
Mode extension : MS Stereo
Codec ID : 55
Codec ID/Hint : MP3
Duration : 1h 13mn
Bit rate mode : Constant
Bit rate : 128 Kbps
Channel(s) : 2 channels
Sampling rate : 48.0 KHz
Compression mode : Lossy
Stream size : 67.7 MiB (9%)
Alignment : Aligned on interleaves
Interleave, duration : 40 ms (1.00 video frame)
Interleave, preload duration : 504 ms
Writing library : LAME3.97ЄЄЄЄЄЄЄ

Скриншоты



Скачать

Скачать торрент! Лама-мститель / Смертельная акула / The Lama Avenger / Der Killerhai / The Three Avengers / Da chu tou (Вонг Ва-Кей / Wong Wah-Kei) [1979, Гонконг, боевик, боевые искусства, комедия, VHSRip] VO

Как скачивать? · Что такое торрент? · Рейтинг и ограничения

Сайт не распространяет и не хранит электронные версии произведений, а лишь предоставляет доступ к создаваемому пользователями каталогу ссылок на торрент-файлы, которые содержат только списки хеш-сумм

[Профиль] [ЛС]
Показать сообщения:    
Ответить на тему

Текущее время: Сегодня 15:42

Часовой пояс: GMT + 4



Вы не можете начинать темы
Вы не можете отвечать на сообщения
Вы не можете редактировать свои сообщения
Вы не можете удалять свои сообщения
Вы не можете голосовать в опросах
Вы не можете прикреплять файлы к сообщениям
Вы не можете скачивать файлы