Муви 43 / Movie 43 (Стивен Брилл / Steven Brill, Питер Фаррелли / Peter Farrelly, Боб Оденкёрк / Bob Odenkirk) [2013 г., США, комедия, BDRip] Dub + AVO (Гоблин)

Ответить на тему
 
Автор Сообщение

user ®

Стаж: 7 лет 7 месяцев

Сообщений: 20008

Пост Пост: #1 от 23-Сен-2013 11:25

[Цитировать]

Муви 43Movie 43-«Самая отвязная комедия Нового года»- Год выпуска: 2013
Страна: США-Жанр: комедия
Продолжительность: 01:37:59
Перевод:
  • Профессиональный (полное дублирование)
  • Авторский (Пучков [Гоблин] Дмитрий)
Субтитры: нет-Режиссер: Стивен Брилл / Steven Brill, Питер Фаррелли / Peter Farrelly, Боб Оденкёрк / Bob Odenkirk
Сценарий: Уилл Кэрло / Will Carlough, Роки Руссо / Rocky Russo, Джек Кукода / Jack Kukoda, Патрик Форсберг / Patrik Forsberg, Олле Сарри / Olle Sarri
Продюсер: Джон Пенотти / John Penotti, Чарльз Б. Весслер / Charles B. Wessler, Питер Фаррелли / Peter Farrelly, Райан Кэвэна / Ryan Kavanaugh, Марк Амброзе / Marc Ambrose
Оператор: Фрэнк Дж. ДеМарко / Frank G. DeMarco, Стив Гэйнер / Steve Gainer, Мэтью Ф. Леонетти / Matthew F. Leonetti, Дарин Окада / Daryn Okada, Уильям Рексер / William Rexer
Композитор: Тайлер Бейтс / Tyler Bates, Кристоф Бек / Christophe Beck, Лео Биренберг / Leo Birenberg, Уильям Гудрам / William Goodrum, Дэйв Ходж / Dave Hodge-В ролях: Холли Берри (Emily (segment 'Truth or Dare')), Джерард Батлер (Leprechaun 1 & 2 (segment 'Happy Birthday')), Хью Джекман (Davis (segment 'The Catch')), Кейт Уинслет (Beth (segment 'The Catch')), Деннис Куэйд (Charlie Wessler (segment 'The Pitch')), Наоми Уоттс (Samantha (segment 'Homeschooled')), Ричард Гир (Boss (segment 'iBabe')), Ума Турман (Fake Lois Lane (segment 'Super Hero Speed Dating')), Хлоя Грейс Морец (Amanda (segment 'Middleschool Date')), Элизабет Бэнкс (Amy (segment 'Beezel')), Анна Фэрис (Vanessa (segment 'The Proposition')), Сет МакФарлейн (Seth MacFarlane (segment 'The Pitch'))
Дублёры: Наталья Грачева (Emily (segment 'Truth or Dare')), Пётр Иващенко (Leprechaun 1 & 2 (segment 'Happy Birthday'); Coach Jackson (segment 'Victory's Glory'); Кристофер Кирби), Александр Рахленко (Davis (segment 'The Catch')), Ирина Киреева (Beth (segment 'The Catch')), Людмила Шувалова (Samantha (segment 'Homeschooled')), Владимир Антоник (Boss (segment 'iBabe')), Рамиля Искандер (Fake Lois Lane (segment 'Super Hero Speed Dating')), Татьяна Шитова (Vanessa (segment 'The Proposition')), Юрий Деркач (Pete (segment 'Happy Birthday')), Константин Карасик (Fake Batman (segment 'Super Hero Speed Dating')), Полина Чекан (Fake Supergirl (segment 'Super Hero Speed Dating')), Александр Груздев (Robert (segment 'Homeschooled'))-Описание: 25 cуперзвезд первой величины - в комедийном проекте, который состоит из двух десятков мини-новелл с нескончаемым потоком шуток, гэгов, острот и пародий, о страстях и страстишках человеческих.-kinopoisk.ru: 5.131 (50 505)
imdb.com: 4.40 (38 363)
MPAA: R - Лицам до 17 лет обязательно присутствие взрослого-Качество: BDRip
Контейнер: AVI
Видео: 592x320 (1.85:1), 23.976 fps, XviD build 65 ~924 kbps avg, 0.20 bit/pixel
Аудио I: 48 kHz, MPEG Layer 3, 2 ch, ~128.00 kbps avg (Dub)
Аудио II: 48 kHz, MPEG Layer 3, 2 ch, ~128.00 kbps avg (AVO) (отдельно)-
-

MediaInfo

General
Format                                   : AVI
Format/Info                              : Audio Video Interleave
File size                                : 744 MiB
Duration                                 : 1h 37mn
Overall bit rate                         : 1 062 Kbps
Writing application                      : VirtualDubMod 1.5.10.3 | www.virtualdub-fr.org || (build 2550/release)
Writing library                          : VirtualDubMod build 2550/release
Video
ID                                       : 0
Format                                   : MPEG-4 Visual
Format profile                           : Advanced Simple@L5
Format settings, BVOP                    : 2
Format settings, QPel                    : No
Format settings, GMC                     : No warppoints
Format settings, Matrix                  : Custom
Codec ID                                 : XVID
Codec ID/Hint                            : XviD
Duration                                 : 1h 37mn
Bit rate                                 : 925 Kbps
Width                                    : 592 pixels
Height                                   : 320 pixels
Display aspect ratio                     : 1.85:1
Frame rate                               : 23.976 fps
Color space                              : YUV
Chroma subsampling                       : 4:2:0
Bit depth                                : 8 bits
Scan type                                : Progressive
Compression mode                         : Lossy
Bits/(Pixel*Frame)                       : 0.204
Stream size                              : 648 MiB (87%)
Writing library                          : XviD 65
Audio
ID                                       : 1
Format                                   : MPEG Audio
Format version                           : Version 1
Format profile                           : Layer 3
Codec ID                                 : 55
Codec ID/Hint                            : MP3
Duration                                 : 1h 37mn
Bit rate mode                            : Constant
Bit rate                                 : 128 Kbps
Channel(s)                               : 2 channels
Sampling rate                            : 48.0 KHz
Compression mode                         : Lossy
Stream size                              : 89.7 MiB (12%)
Alignment                                : Aligned on interleaves
Interleave, duration                     : 42 ms (1.00 video frame)
Interleave, preload duration             : 504 ms
Writing library                          : LAME3.99r
Encoding settings                        : -m s -V 4 -q 2 -lowpass 17 -b 128

-

Сэмпл

Скачать

Скриншоты

Скачать

Скачать торрент!

Как скачивать? · Что такое торрент? · Рейтинг и ограничения

Сайт не распространяет и не хранит электронные версии произведений, а лишь предоставляет доступ к создаваемому пользователями каталогу ссылок на торрент-файлы, которые содержат только списки хеш-сумм

[Профиль] [ЛС]
Показать сообщения:    
Ответить на тему

Текущее время: Сегодня 18:17

Часовой пояс: GMT + 4



Вы не можете начинать темы
Вы не можете отвечать на сообщения
Вы не можете редактировать свои сообщения
Вы не можете удалять свои сообщения
Вы не можете голосовать в опросах
Вы не можете прикреплять файлы к сообщениям
Вы не можете скачивать файлы