После нашей эры / After Earth (М. Найт Шьямалан / M. Night Shyamalan) [2013 г., США, фантастика, приключения, боевик, BDRip] Dub + Original + Sub (Eng)

Ответить на тему
 
Автор Сообщение

user ®

Стаж: 7 лет 7 месяцев

Сообщений: 20008

Пост Пост: #1 от 23-Сен-2013 11:25

[Цитировать]

После нашей эрыAfter Earth-«Danger is real. Fear is a choice.»- Год выпуска: 2013
Страна: США-Жанр: фантастика, приключения, боевик
Продолжительность: 01:40:02
Перевод: Профессиональный (полное дублирование)
Субтитры: английские-Режиссер: М. Найт Шьямалан / M. Night Shyamalan
Сценарий: Гари Уитта / Gary Whitta, М. Найт Шьямалан / M. Night Shyamalan, Уилл Смит / Will Smith
Продюсер: Джеймс Ласситер / James Lassiter, Джада Пинкетт Смит / Jada Pinkett Smith, Калиб Пинкетт / Caleeb Pinkett, Уилл Смит / Will Smith, Кваме Паркер / Kwame Parker
Оператор: Питер Сушицки / Peter Suschitzky
Композитор: Джеймс Ньютон Ховард / James Newton Howard-В ролях: Джейден Смит (Kitai Raige), Уилл Смит (Cypher Raige), Софи Оконедо (Faia Raige), Зои Кравиц (Senshi Raige), Гленн Моршауэр (Commander Velan), Кристофер Хивджу (Security Chief), Саша Дхаван (Hesper Pilot), Крис Гир (Hesper Navigator), Диего Клаттенхофф (Veteran Ranger), Дэвид Денман (Private McQuarrie), Линкольн Льюис (Running Cadet), Джейден Мартин (Nine-Year-Old Kitai)
Дублёры: Станислав Концевич (Cypher Raige), Сергей Чихачев (Commander Velan)-Описание: События разворачиваются через тысячу лет после катастрофы, вынудившей человечество покинуть Землю. Новым домом становится планета под названием Нова Прайм. Легендарный генерал Сайфер Рейдж возвращается с очередного боевого задания в семью, которая раньше обходилась без его родительского внимания, чтобы стать отцом своему 13-летнему сыну Китаю. Во время астероидной бури летательный аппарат с папой и сыном на борту терпит крушение, падая на незнакомую и опасную Землю. И пока Рейдж-старший на последнем дыхании лежит среди обломков своего корабля, сын должен пересечь враждебный ландшафт, чтобы запустить их спасательный маячок. Ни о чем большем юноша в своей жизни не мечтал: быть солдатом, как отец, - его заветное желание. Сегодня у него есть шанс проявить себя.-kinopoisk.ru: 6.181 (19 984)
imdb.com: 4.80 (42 977)
MPAA: PG-13 - Детям до 13 лет просмотр не желателен-После выхода лицензионного звука и субтитров рип будет переделан-Качество: BDRip / After.Earth.2013.BluRay.1080p.AVC.DTS-HD.MA5.1-CHDBits
Контейнер: AVI
Видео: 720x304 (2.37:1), 23.976 fps, XviD MPEG-4 ~2214 kbps avg, 0.42 bit/pixel
Аудио I: 48 kHz, AC3 Dolby Digital, 3/2 (L,C,R,l,r) + LFE ch, ~384 kbps (Dub)
Аудио II: 48 kHz, AC3 Dolby Digital, 3/2 (L,C,R,l,r) + LFE ch, ~448 kbps (Original)-
-

MediaInfo

General
Format                                   : AVI
Format/Info                              : Audio Video Interleave
Format profile                           : OpenDML
File size                                : 2.13 GiB
Duration                                 : 1h 40mn
Overall bit rate                         : 3 054 Kbps
Movie name                               : After.Earth.2013.BDRip.Dub.All.Films
Director                                 : DIABLO93
Genre                                    : Action/Adventure
Writing application                      : VirtualDubMod 1.5.10.3 | www.virtualdub-fr.org || (build 2550/release)
Original source form/Name                : Movie
Copyright                                :  (R.G. All Films)
Video
ID                                       : 0
Format                                   : MPEG-4 Visual
Format profile                           : Advanced Simple@L5
Format settings, BVOP                    : 2
Format settings, QPel                    : No
Format settings, GMC                     : No warppoints
Format settings, Matrix                  : Custom
Codec ID                                 : XVID
Codec ID/Hint                            : XviD
Duration                                 : 1h 40mn
Bit rate                                 : 2 204 Kbps
Width                                    : 720 pixels
Height                                   : 304 pixels
Display aspect ratio                     : 2.35:1
Frame rate                               : 23.976 fps
Color space                              : YUV
Chroma subsampling                       : 4:2:0
Bit depth                                : 8 bits
Scan type                                : Progressive
Compression mode                         : Lossy
Bits/(Pixel*Frame)                       : 0.420
Stream size                              : 1.54 GiB (72%)
Writing library                          : XviD 65
Audio #1
ID                                       : 1
Format                                   : AC-3
Format/Info                              : Audio Coding 3
Mode extension                           : CM (complete main)
Format settings, Endianness              : Big
Codec ID                                 : 2000
Duration                                 : 1h 40mn
Bit rate mode                            : Constant
Bit rate                                 : 384 Kbps
Channel(s)                               : 6 channels
Channel positions                        : Front: L C R, Side: L R, LFE
Sampling rate                            : 48.0 KHz
Bit depth                                : 16 bits
Compression mode                         : Lossy
Stream size                              : 275 MiB (13%)
Alignment                                : Split accross interleaves
Interleave, duration                     : 42 ms (1.00 video frame)
Interleave, preload duration             : 500 ms
Audio #2
ID                                       : 2
Format                                   : AC-3
Format/Info                              : Audio Coding 3
Mode extension                           : CM (complete main)
Format settings, Endianness              : Big
Codec ID                                 : 2000
Duration                                 : 1h 40mn
Bit rate mode                            : Constant
Bit rate                                 : 448 Kbps
Channel(s)                               : 6 channels
Channel positions                        : Front: L C R, Side: L R, LFE
Sampling rate                            : 48.0 KHz
Bit depth                                : 16 bits
Compression mode                         : Lossy
Stream size                              : 321 MiB (15%)
Alignment                                : Split accross interleaves
Interleave, duration                     : 42 ms (1.00 video frame)
Interleave, preload duration             : 500 ms

-

Сэмпл

Скачать

Скриншоты

Скачать

Скачать торрент!

Как скачивать? · Что такое торрент? · Рейтинг и ограничения

Сайт не распространяет и не хранит электронные версии произведений, а лишь предоставляет доступ к создаваемому пользователями каталогу ссылок на торрент-файлы, которые содержат только списки хеш-сумм

[Профиль] [ЛС]
Показать сообщения:    
Ответить на тему

Текущее время: Сегодня 07:06

Часовой пояс: GMT + 4



Вы не можете начинать темы
Вы не можете отвечать на сообщения
Вы не можете редактировать свои сообщения
Вы не можете удалять свои сообщения
Вы не можете голосовать в опросах
Вы не можете прикреплять файлы к сообщениям
Вы не можете скачивать файлы