Хон Гиль Дон / Hong kil dong / Hon Gil Don (Ким Кил Ин / Kim Kil In) [1986, Корея Северная, боевые искусства, фэнтези, DVDRip] [Расширенная версия / Extended Cut] Dub (к/с М. Горького) + Sub Rus

Ответить на тему
 
Автор Сообщение

user ®

Стаж: 11 лет

Сообщений: 15151

Пост Пост: #1 от 23-Сен-2013 00:25

[Цитировать]

Хон Гиль Дон / Hong kil dong / Hon Gil Don / Расширенная версия / Extended Cut
Страна: Корея Северная
Жанр: боевые искусства, фэнтези
Год выпуска: 1986
Продолжительность: 01:44:32
-
Перевод: Профессиональный (дублированный) к/с М. Горького
Cубтитры: русские (на места без перевода)
-
Режиссер: Ким Кил Ин / Kim Kil In
В ролях: Йон Хо Ри, Гвон Ри, Чань Сон Хью, Рийонум Ри, Кенпачиро Сацума
-
Описание: Народный заступник Хон Гиль Дон в одиночку, в совершенстве владея приемами таэквандо и ловко действуя мечом, справляется со всей нечистью, что портила жизнь простым людям еще в XVII веке.
-

-
Качество видео: DVDRip
Формат видео: AVI
Видео: 688x512 (1.34:1), 25 fps, XviD build 73 ~1765 kbps avg, 0.20 bit/pixel
Аудио: 48 kHz, AC3 Dolby Digital, 2/0 (L,R) ch, ~224 kbps
Формат субтитров: softsub (SRT)

Места без перевода

Нет перевода: 7:55-8:16, 21:13-22:31, 23:26-23:44, 31:58-32:05, 58:41-1:01:26, 1:04:01-1:04:18, 1:04:46-1:05:11,
1:06:08-1:06:52, 1:11:40-1:14:18, 1:23:10-1:23:40, 1:28:10-1:28:40, 1:32:08-1:33:01, 1:34:38-1:34:53
На места без перевода - русские сабы. Перевод и создание субтитров: Lem / smit009 - спасибо.

MediaInfo

General
Complete name : D:\Релизы\Hong kil dong.Extended Cut.1986.RUS.DVDRip.XviD.AC3\Hong kil dong.Extended Cut.1986.RUS.DVDRip.XviD.AC3.avi
Format : AVI
Format/Info : Audio Video Interleave
File size : 1.46 GiB
Duration : 1h 44mn
Overall bit rate : 1 999 Kbps
Writing application : VirtualDubMod 1.5.10.2 (build 2540/release)
Writing library : VirtualDubMod build 2540/release
Video
ID : 0
Format : MPEG-4 Visual
Format profile : Advanced Simple@L5
Format settings, BVOP : 1
Format settings, QPel : No
Format settings, GMC : No warppoints
Format settings, Matrix : Custom
Codec ID : XVID
Codec ID/Hint : XviD
Duration : 1h 44mn
Bit rate : 1 765 Kbps
Width : 688 pixels
Height : 512 pixels
Display aspect ratio : 4:3
Frame rate : 25.000 fps
Color space : YUV
Chroma subsampling : 4:2:0
Bit depth : 8 bits
Scan type : Progressive
Compression mode : Lossy
Bits/(Pixel*Frame) : 0.200
Stream size : 1.29 GiB (88%)
Writing library : XviD 73
Audio
ID : 1
Format : AC-3
Format/Info : Audio Coding 3
Mode extension : CM (complete main)
Format settings, Endianness : Big
Codec ID : 2000
Duration : 1h 44mn
Bit rate mode : Constant
Bit rate : 224 Kbps
Channel(s) : 2 channels
Channel positions : Front: L R
Sampling rate : 48.0 KHz
Bit depth : 16 bits
Compression mode : Lossy
Stream size : 167 MiB (11%)
Alignment : Split accross interleaves
Interleave, duration : 40 ms (1.00 video frame)
Interleave, preload duration : 500 ms

Скриншоты

Скачать

Скачать торрент! Хон Гиль Дон / Hong kil dong / Hon Gil Don (Ким Кил Ин / Kim Kil In) [1986, Корея Северная, боевые искусства, фэнтези, DVDRip] [Расширенная версия / Extended Cut] Dub (к/с М. Горького) + Sub Rus

Как скачивать? · Что такое торрент? · Рейтинг и ограничения

Сайт не распространяет и не хранит электронные версии произведений, а лишь предоставляет доступ к создаваемому пользователями каталогу ссылок на торрент-файлы, которые содержат только списки хеш-сумм

[Профиль] [ЛС]
Показать сообщения:    
Ответить на тему

Текущее время: Сегодня 01:54

Часовой пояс: GMT + 4



Вы не можете начинать темы
Вы не можете отвечать на сообщения
Вы не можете редактировать свои сообщения
Вы не можете удалять свои сообщения
Вы не можете голосовать в опросах
Вы не можете прикреплять файлы к сообщениям
Вы не можете скачивать файлы