День памяти / Memorial Day (Сэмюэл Фишер / Samuel Fischer) [2010, США, Боевик, драма, BDRip 1080p] MVO + Sub Eng + Original Eng

Ответить на тему
 
Автор Сообщение

user ®

Стаж: 7 лет 7 месяцев

Сообщений: 20008

Пост Пост: #1 от 23-Сен-2013 00:25

[Цитировать]

День памяти / Memorial Day
Страна: США
Жанр: Боевик, драма
Год выпуска: 2010
Продолжительность: 01:53:37
Перевод: Профессиональный (многоголосый закадровый) студия Jaskier по заказу Creative Media
Cубтитры: Английские, Испанские
Оригинальная аудиодорожка: английский
Режиссер: Сэмюэл Фишер / Samuel Fischer
В ролях: Джонатан Беннетт, Джеймс Кромуэлл, Джон Кромуэлл, Джексон Бонд, Мэри Кэй Фортье-Спэлдинг, Эмили Фраденбург, Чарльз Хаббелл, Корби Келли, Крис ЛеФивер, Люк Шуцле
Описание: Во время игры в прятки маленький Кайл нашел сундук своего дедушки Бада, в котором хранились вещи, оставшиеся в память о войне. Бабушка посоветовала не показывать деду находку, потому что лежащие в сундуке вещи только разбередят старые раны и огорчат старика. Но, несмотря на ее запреты, Кайл все же решил показать сундук владельцу. Поначалу дедушка Бад не хотел открывать ящик, но внуку удалось уговорить его на небольшое одолжение в честь Дня поминовения: он выберет любые три предмета из шкатулки, а Бад расскажет три истории о войне...
Сэмпл
Тип релиза: BDRip 1080p
Контейнер: MKV
Видео: MPEG-4 AVC, 8299 Кбит/с, 1920x1080
Аудио: Russian: 48 kHz, AC3, 2/0 (L,R) ch, ~192.00 kbps avg
Аудио 2: English: 48 kHz/24-bit, DTS, 2/0 (L,R) ch, ~1510.00 kbps avg
Формат субтитров: softsub (SRT)

Скриншоты

MediaInfo

Общее
Уникальный идентификатор : 170778673516826020124171070055253945552 (0x807AC6AFBA11AC1F8DB9491CE60E2CD0)
Полное имя : C:\Users\к\Desktop\КИНО HD\Memorial.Day.2012.BluRay.1080.mkv
Формат : Matroska
Версия формата : Version 4 / Version 2
Размер файла : 8,10 Гбайт
Продолжительность : 1 ч. 53 м.
Общий поток : 10,2 Мбит/сек
Название фильма : СПАМ
Дата кодирования : UTC 2013-09-19 22:20:05
Программа кодирования : mkvmerge v6.4.1 ('Omega Point') built on Sep 16 2013 22:05:10
Библиотека кодирования : libebml v1.3.0 libmatroska v1.4.1
Видео
Идентификатор : 1
Формат : AVC
Формат/Информация : Advanced Video Codec
Профиль формата : High@L4.1
Параметр CABAC формата : Да
Параметр ReFrames формата : 4 кадра
Идентификатор кодека : V_MPEG4/ISO/AVC
Продолжительность : 1 ч. 53 м.
Битрейт : 8299 Кбит/сек
Ширина : 1920 пикселей
Высота : 1080 пикселей
Соотношение сторон : 16:9
Режим частоты кадров : Постоянный
Частота кадров : 23,976 кадра/сек
Цветовое пространство : YUV
Субдискретизация насыщенности : 4:2:0
Битовая глубина : 8 бит
Тип развёртки : Прогрессивная
Бит/(Пиксели*Кадры) : 0.167
Размер потока : 6,59 Гбайт (81%)
Библиотека кодирования : x264 core 120 r2164 da19765
Настройки программы : cabac=1 / ref=4 / deblock=1:-2:-2 / analyse=0x3:0x113 / me=umh / subme=8 / psy=1 / psy_rd=1.00:0.00 / mixed_ref=0 / me_range=16 / chroma_me=1 / trellis=2 / 8x8dct=1 / cqm=0 / deadzone=21,11 / fast_pskip=0 / chroma_qp_offset=3 / threads=6 / sliced_threads=0 / nr=0 / decimate=0 / interlaced=0 / bluray_compat=0 / constrained_intra=0 / bframes=6 / b_pyramid=2 / b_adapt=1 / b_bias=0 / direct=2 / weightb=1 / open_gop=0 / weightp=1 / keyint=240 / keyint_min=22 / scenecut=40 / intra_refresh=0 / rc_lookahead=10 / rc=crf / mbtree=1 / crf=18.0 / qcomp=0.70 / qpmin=0 / qpmax=51 / qpstep=4 / vbv_maxrate=38000 / vbv_bufsize=30000 / crf_max=0.0 / nal_hrd=none / ip_ratio=1.40 / aq=1:1.10
Язык : English
Default : Да
Forced : Нет
Коэффициенты матрицы : BT.709
Аудио #1
Идентификатор : 2
Формат : AC-3
Формат/Информация : Audio Coding 3
Расширение режима : CM (complete main)
Параметр Endianness формата : Big
Идентификатор кодека : A_AC3
Продолжительность : 1 ч. 53 м.
Вид битрейта : Постоянный
Битрейт : 192 Кбит/сек
Каналы : 2 канала
Расположение каналов : Front: L R
Частота : 48,0 КГц
Битовая глубина : 16 бит
Метод сжатия : С потерями
Размер потока : 156 Мбайт (2%)
Заголовок : студия Jaskier
Язык : Russian
Default : Да
Forced : Да
Аудио #2
Идентификатор : 3
Формат : DTS
Формат/Информация : Digital Theater Systems
Режим : 16
Параметр Endianness формата : Big
Идентификатор кодека : A_DTS
Продолжительность : 1 ч. 53 м.
Вид битрейта : Постоянный
Битрейт : 1509 Кбит/сек
Каналы : 6 каналов
Расположение каналов : Front: L C R, Side: L R, LFE
Частота : 48,0 КГц
Битовая глубина : 24 бит
Метод сжатия : С потерями
Размер потока : 1,20 Гбайт (15%)
Заголовок : СПАМ
Язык : English
Default : Нет
Forced : Нет
Текст #1
Идентификатор : 4
Формат : UTF-8
Идентификатор кодека : S_TEXT/UTF8
Идентификатор кодека/Информация : UTF-8 Plain Text
Язык : English
Default : Нет
Forced : Нет
Текст #2
Идентификатор : 5
Формат : UTF-8
Идентификатор кодека : S_TEXT/UTF8
Идентификатор кодека/Информация : UTF-8 Plain Text
Язык : Spanish
Default : Нет
Forced : Нет
Меню
00:00:00.000 : en:00:00:00.000
00:01:31.216 : en:00:01:31.216
00:06:46.239 : en:00:06:46.239
00:09:05.628 : en:00:09:05.628
00:16:19.437 : en:00:16:19.437
00:28:25.495 : en:00:28:25.495
00:40:19.375 : en:00:40:19.375
00:51:58.490 : en:00:51:58.490
01:12:46.571 : en:01:12:46.571
01:23:16.909 : en:01:23:16.909
01:37:44.859 : en:01:37:44.859
01:44:01.944 : en:01:44:01.944
Скачать

Скачать торрент!

Как скачивать? · Что такое торрент? · Рейтинг и ограничения

Сайт не распространяет и не хранит электронные версии произведений, а лишь предоставляет доступ к создаваемому пользователями каталогу ссылок на торрент-файлы, которые содержат только списки хеш-сумм

[Профиль] [ЛС]
Показать сообщения:    
Ответить на тему

Текущее время: Сегодня 10:11

Часовой пояс: GMT + 4



Вы не можете начинать темы
Вы не можете отвечать на сообщения
Вы не можете редактировать свои сообщения
Вы не можете удалять свои сообщения
Вы не можете голосовать в опросах
Вы не можете прикреплять файлы к сообщениям
Вы не можете скачивать файлы