Щепка / Sliver (Филлип Нойс / Phillip Noyce) [1993, США, Триллер, мелодрама, BDRip 720p] DVO (НТВ+) + AVO (А.Михалев) + AVO (А.Пронин) + Original (Eng) + Sub (Eng)

Ответить на тему
 
Автор Сообщение

user ®

Стаж: 7 лет 7 месяцев

Сообщений: 20008

Пост Пост: #1 от 23-Сен-2013 00:25

[Цитировать]

ЩЕПКА / SLIVER«You like to watch...don't you»- Страна: США
Студия: Paramount Pictures
Жанр: Триллер, мелодрама
Год выпуска: 1993
Продолжительность: 01:46:31-Перевод 1: Профессиональный (двухголосый закадровый) НТВ+
Перевод 2: Авторский (одноголосый закадровый) А.Михалев
Перевод 3: Авторский (одноголосый закадровый) А.Пронин
Оригинальная аудиодорожка: английская
Cубтитры: английские-Режиссер: Филлип Нойс / Phillip Noyce
В ролях: Шэрон Стоун, Уильям Болдуин, Том Беренджер, Полли Уокер, Коллин Кэмп, Аманда Формен, Мартин Ландау, Си Си Эйч Паундер, Нина Фош, Кин Кертис, Николас Прайор, Энн Бетанкорт, Тони Пек, Франц Тернер, Раду Гэйвор, Эллисон Маки, Хосе Рей, Джим Бивер, Гилберт Розалес, Мик Скриба, Стив Карлайл, Марк Брэмхолл, Сид МакКой, Сэнди Гутман, Робин Гров, Мэттью Фэйзон, Марне Паттерсон, Кристин Той, Филип Хоффман, Николь Орт-Паллавичини, Артур Экдал, Патриция Эллисон, Джеймс Ной, Эдуардо Н.Т. Андраде, Виктор Брандт, Райан Кутрона, Роберт Миано, Стив Истин, Уэнди Катлер, Крэйг Хоскин, Клифф Флеминг-Описание: Сотрудница издательства Кей Норрис переезжает на новую квартиру в модном небоскребе, прозванном «щепка». Там она становится объектом соперничества двух мужчин - владельца дома и одного из жильцов, автора популярных детективов. Серия таинственных убийств, происходящих в доме, наводит ее на мысль, что вокруг нее самой сжимается опасное кольцо. Кей понимает, что неизвестный убийца - один из ее поклонников...- -Тип релиза: BDRip 720p
Контейнер: MKV
Видео: MPEG-4 AVC, 5215 Кбит/с, 1280x608, 23.976 кадр/с
Аудио 1: Russian: 48 kHz, AC3, 2/0 (L,R) ch, 256 Кбит/с (2ch) DVO |НТВ+|
Аудио 2: Russian: 48 kHz, AC3, 3/2 (L,C,R,l,r) + LFE ch, 448 Кбит/с (6ch) AVO |А.Михалев|
Аудио 3: Russian: 48 kHz, AC3, 2/0 (L,R) ch, 192 Кбит/с (2ch) AVO |А.Пронин|
Аудио 4: English: 48 kHz, DTS, 2/0 (L,R) ch, 1510 Кбит/с (2ch)
Субтитры: Английские (full)
-

Знаете ли вы, что...

- Сценарий картины Джо Эстерхас написал по роману Айры Левин и исказил его до такой степени, что даже изменил личность убийцы.
- Во время съемки извержения вулкана вертолет со съемочной группой потерпел катастрофу и упал в жерло вулкана. Все остались живы. Но потребовалось 2 дня, чтобы спасти их. Эти события описаны в одной из серий передачи «Я не должен был выжить» (I Shouldn’t Be Alive).
- Книга «Плоть и кровь», которую Джек посылает Карли, на обложке имеет постер фильма «Мертвый штиль» (1989), который также снял Филипп Нойс.

Награды и номинации

Премия канала «MTV», 1994 год
Победитель (1):
Самый желанный мужчина (Уильям Болдуин)
Номинации (2):
Лучшая песня — «I Can't Help Falling In Love»
Самая желанная женщина (Шэрон Стоун)
Золотая малина, 1994 год
Номинации (7):
Худший фильм
Худшая мужская роль (Уильям Болдуин)
Худшая женская роль (Шэрон Стоун)
Худшая мужская роль второго плана (Том Беренджер)
Худшая женская роль второго плана (Коллин Кэмп)
Худший режиссер (Филлип Нойс)
Худший сценарий

О релизе

Видеоряд - CHD.
Сохранены оригинальные чаптеры как на Blu-ray.
Полная перетяжка и синхронизация всех Русских аудио дорожек - Respector.
Конвертация английских субтитров - Respector.
Сборка рипа - Respector.

MediaInfo

Format : Matroska
Format version : Version 2
File size : 5.67 GiB
Duration : 1h 46mn
Overall bit rate : 7 615 Kbps
Movie name : Respector
Encoded date : UTC 2013-09-14 08:30:45
Writing application : mkvmerge v5.5.0 ('Healer') built on Apr 24 2012 23:47:03
Writing library : libebml v1.2.3 + libmatroska v1.3.0
Video
ID : 1
Format : AVC
Format/Info : Advanced Video Codec
Format profile : High@L4.1
Format settings, CABAC : Yes
Format settings, ReFrames : 10 frames
Codec ID : V_MPEG4/ISO/AVC
Duration : 1h 46mn
Bit rate : 5 215 Kbps
Width : 1 280 pixels
Height : 608 pixels
Display aspect ratio : 2.105
Frame rate mode : Constant
Frame rate : 23.976 fps
Color space : YUV
Chroma subsampling : 4:2:0
Bit depth : 8 bits
Scan type : Progressive
Bits/(Pixel*Frame) : 0.279
Stream size : 3.76 GiB (66%)
Writing library : x264 core 138 r2356 a1d3d17
Encoding settings : cabac=1 / ref=10 / deblock=1:-3:-3 / analyse=0x3:0x113 / me=umh / subme=10 / psy=1 / psy_rd=1.05:0.10 / mixed_ref=1 / me_range=32 / chroma_me=1 / trellis=2 / 8x8dct=1 / cqm=0 / deadzone=21,11 / fast_pskip=0 / chroma_qp_offset=-2 / threads=18 / lookahead_threads=1 / sliced_threads=0 / nr=0 / decimate=1 / interlaced=0 / bluray_compat=0 / constrained_intra=0 / bframes=6 / b_pyramid=2 / b_adapt=2 / b_bias=0 / direct=3 / weightb=1 / open_gop=0 / weightp=2 / keyint=250 / keyint_min=23 / scenecut=40 / intra_refresh=0 / rc=2pass / mbtree=0 / bitrate=5215 / ratetol=1.0 / qcomp=0.70 / qpmin=0 / qpmax=69 / qpstep=4 / cplxblur=20.0 / qblur=0.5 / ip_ratio=1.40 / pb_ratio=1.30 / aq=2:0.80
Language : English
Default : Yes
Forced : No
Audio #1
ID : 2
Format : AC-3
Format/Info : Audio Coding 3
Mode extension : CM (complete main)
Format settings, Endianness : Big
Codec ID : A_AC3
Duration : 1h 46mn
Bit rate mode : Constant
Bit rate : 256 Kbps
Channel count : 2 channels
Channel positions : Front: L R
Sampling rate : 48.0 KHz
Bit depth : 16 bits
Compression mode : Lossy
Stream size : 195 MiB (3%)
Title : DVO-HTB+
Language : Russian
Default : Yes
Forced : Yes
Audio #2
ID : 3
Format : AC-3
Format/Info : Audio Coding 3
Mode extension : CM (complete main)
Format settings, Endianness : Big
Codec ID : A_AC3
Duration : 1h 46mn
Bit rate mode : Constant
Bit rate : 448 Kbps
Channel count : 6 channels
Channel positions : Front: L C R, Side: L R, LFE
Sampling rate : 48.0 KHz
Bit depth : 16 bits
Compression mode : Lossy
Stream size : 341 MiB (6%)
Title : Mihalev
Language : Russian
Default : No
Forced : No
Audio #3
ID : 4
Format : AC-3
Format/Info : Audio Coding 3
Mode extension : CM (complete main)
Format settings, Endianness : Big
Codec ID : A_AC3
Duration : 1h 46mn
Bit rate mode : Constant
Bit rate : 192 Kbps
Channel count : 2 channels
Channel positions : Front: L R
Sampling rate : 48.0 KHz
Bit depth : 16 bits
Compression mode : Lossy
Stream size : 146 MiB (3%)
Title : Pronin
Language : Russian
Default : No
Forced : No
Audio #4
ID : 5
Format : DTS
Format/Info : Digital Theater Systems
Mode : 16
Format settings, Endianness : Big
Codec ID : A_DTS
Duration : 1h 46mn
Bit rate mode : Constant
Bit rate : 1 509 Kbps
Channel count : 2 channels
Channel positions : Front: L R
Sampling rate : 48.0 KHz
Bit depth : 24 bits
Compression mode : Lossy
Stream size : 1.12 GiB (20%)
Language : English
Default : No
Forced : No
Text
ID : 6
Format : UTF-8
Codec ID : S_TEXT/UTF8
Codec ID/Info : UTF-8 Plain Text
Language : English
Default : No
Forced : No
Menu
00:00:00.000 : :Chapter 01
00:04:12.877 : :Chapter 02
00:09:54.802 : :Chapter 03
00:19:07.729 : :Chapter 04
00:30:37.544 : :Chapter 05
00:38:24.135 : :Chapter 06
00:50:17.472 : :Chapter 07
00:57:37.954 : :Chapter 08
01:08:27.728 : :Chapter 09
01:12:09.241 : :Chapter 10
01:14:17.286 : :Chapter 11
01:26:37.108 : :Chapter 12
01:32:50.565 : :Chapter 13
01:46:29.383 : :Chapter 14
Скачать

Скачать торрент!

Как скачивать? · Что такое торрент? · Рейтинг и ограничения

Сайт не распространяет и не хранит электронные версии произведений, а лишь предоставляет доступ к создаваемому пользователями каталогу ссылок на торрент-файлы, которые содержат только списки хеш-сумм

[Профиль] [ЛС]
Показать сообщения:    
Ответить на тему

Текущее время: Сегодня 06:04

Часовой пояс: GMT + 4



Вы не можете начинать темы
Вы не можете отвечать на сообщения
Вы не можете редактировать свои сообщения
Вы не можете удалять свои сообщения
Вы не можете голосовать в опросах
Вы не можете прикреплять файлы к сообщениям
Вы не можете скачивать файлы