Музыкальный момент (Яков Протазанов) [1913, Фильм-балет]

Ответить на тему
 
Автор Сообщение

user ®

Стаж: 7 лет 7 месяцев

Сообщений: 20008

Пост Пост: #1 от 23-Сен-2013 00:25

[Цитировать]

Музыкальный момент
Жанр: Фильм-балет
Год выпуска: 1913
Продолжительность: 0:05:45
Режиссёр: Яков Протазанов
В ролях: Екатерина Гельцер, Василий Тихомиров.
Описание: Хореографический этюд на музыку Франца Шуберта.
Доп. информация: 1 часть, 150 метров.
В. Короткий отнёс фильм к "протожанру музыкальных фильмов".
Фильм сохранился не полностью.
Качество видео: неизвестно
Формат видео: AVI
Видео: 640x360 (1.78:1), 25 fps, Microsoft MPEG-4 Video Codec V2 ~754 kbps avg, 0.13 bit/pixel
Аудио: 44.100 kHz, MPEG Layer 3, 2 ch, ~96.00 kbps avg

MediaInfo

General
Complete name : D:\Users\Ирина\Desktop\Moment Musical.avi
Format : AVI
Format/Info : Audio Video Interleave
File size : 35.5 MiB
Duration : 5mn 45s
Overall bit rate : 861 Kbps
Writing application : Lavf52.46.0
Video
ID : 0
Format : MPEG-4 Visual
Codec ID : MP42
Codec ID/Info : Microsoft MPEG-4 v2 (pre-standard)
Codec ID/Hint : Microsoft
Duration : 5mn 44s
Bit rate : 755 Kbps
Width : 640 pixels
Height : 360 pixels
Display aspect ratio : 16:9
Frame rate : 25.000 fps
Compression mode : Lossy
Bits/(Pixel*Frame) : 0.131
Stream size : 31.0 MiB (87%)
Audio
ID : 1
Format : MPEG Audio
Format version : Version 1
Format profile : Layer 3
Mode : Joint stereo
Mode extension : MS Stereo
Codec ID : 55
Codec ID/Hint : MP3
Duration : 5mn 45s
Bit rate mode : Constant
Bit rate : 96.0 Kbps
Channel(s) : 2 channels
Sampling rate : 44.1 KHz
Compression mode : Lossy
Stream size : 3.96 MiB (11%)
Alignment : Aligned on interleaves
Interleave, duration : 26 ms (0.65 video frame)
Writing library : LAME3.98.2

Скриншоты

Скачать

Скачать торрент!

Как скачивать? · Что такое торрент? · Рейтинг и ограничения

Сайт не распространяет и не хранит электронные версии произведений, а лишь предоставляет доступ к создаваемому пользователями каталогу ссылок на торрент-файлы, которые содержат только списки хеш-сумм

[Профиль] [ЛС]
Показать сообщения:    
Ответить на тему

Текущее время: Сегодня 21:50

Часовой пояс: GMT + 4



Вы не можете начинать темы
Вы не можете отвечать на сообщения
Вы не можете редактировать свои сообщения
Вы не можете удалять свои сообщения
Вы не можете голосовать в опросах
Вы не можете прикреплять файлы к сообщениям
Вы не можете скачивать файлы