Смертельная месть / Поединок на кулаках / Поединок кулаков / Дуэль кулаков / Todliche Rache / Duel of Fists / Quan ji (Чанг Че / Chang Cheh) [1971, Гонконг, боевик, драма, восточные единоборства, VHSRip] VO

Ответить на тему
 
Автор Сообщение

user ®

Стаж: 11 лет

Сообщений: 15151

Пост Пост: #1 от 22-Сен-2013 14:35

[Цитировать]

Смертельная месть / Дуэль кулаков / Todliche Rache / Duel of Fists / Quan ji
Страна: Гонконг
Жанр: боевик, драма, восточные единоборства
Год выпуска: 1971
Продолжительность: 01:22:44
Перевод: Одноголосый закадровый
Cубтитры: нет
Режиссер: Чанг Че / Chang Cheh
В ролях: Дэвид Чианг
Ланг Ти
Ли Чинг
Pawana Chanajit
Синг Чан
Фенг Ку
Чэнь Чуань
И-Хсианг Чи
Миао Чинг
Юн-Кин Чоу
Описание: Китайский инженер, изучающий на досуге кунгфу, узнает, что у него есть сводный брат, который живет где-то в Тайланде. Все, что наш герой знает о нем, это то, что он профессиональный боксер и имеет татуировку в форме якоря на левой руке. Начав поиски с Бангкока, он ввязывается в разборки с местной мафией, контролирующей боксерские поединки, — их чемпион по имени Пушка известен тем, что просто убивает соперников на ринге, и велик риск, что следующей жертвой садиста станет брат нашего героя.
Доп. информация: Оцифровка VHS (личный архив) и получение VHSRip alenavova
Качество видео: VHSRip
Формат видео: AVI
Видео: 624x368 (1.70:1), 25 fps, XviD build 47 ~1120 kbps avg, 0.20 bit/pixel
Аудио: 48 kHz, MPEG Layer 3, 2 ch, ~128.00 kbps avg

MediaInfo

Смертельная месть - Quan ji [Rip by alenavova].avi
Format : AVI
Format/Info : Audio Video Interleave
File size : 745 MiB
Duration : 1h 22mn
Overall bit rate : 1 259 Kbps
Movie name : Смертельная месть - Quan ji [Rip by alenavova]
Director : Rip by alenavova
Writing application : VirtualDubMod 1.5.10.2 (build 2540/release)
Copyright : Edich2
Comment :
Video
ID : 0
Format : MPEG-4 Visual
Format profile : Advanced Simple@L5
Format settings, BVOP : 1
Format settings, QPel : No
Format settings, GMC : No warppoints
Format settings, Matrix : Default (H.263)
Codec ID : XVID
Codec ID/Hint : XviD
Duration : 1h 22mn
Bit rate : 1 121 Kbps
Width : 624 pixels
Height : 368 pixels
Display aspect ratio : 1.696
Frame rate : 25.000 fps
Color space : YUV
Chroma subsampling : 4:2:0
Bit depth : 8 bits
Scan type : Progressive
Compression mode : Lossy
Bits/(Pixel*Frame) : 0.195
Stream size : 663 MiB (89%)
Writing library : XviD 1.2.0.dev47 (UTC 2006-11-01)
Audio
ID : 1
Format : MPEG Audio
Format version : Version 1
Format profile : Layer 3
Mode : Joint stereo
Mode extension : MS Stereo
Codec ID : 55
Codec ID/Hint : MP3
Duration : 1h 22mn
Bit rate mode : Constant
Bit rate : 128 Kbps
Channel(s) : 2 channels
Sampling rate : 48.0 KHz
Compression mode : Lossy
Stream size : 75.8 MiB (10%)
Alignment : Aligned on interleaves
Interleave, duration : 40 ms (1.00 video frame)
Interleave, preload duration : 504 ms
Writing library : LAME3.97

Скриншоты


Скачать

Скачать торрент! Смертельная месть / Поединок на кулаках / Поединок кулаков / Дуэль кулаков / Todliche Rache / Duel of Fists / Quan ji (Чанг Че / Chang Cheh) [1971, Гонконг, боевик, драма, восточные единоборства, VHSRip] VO

Как скачивать? · Что такое торрент? · Рейтинг и ограничения

Сайт не распространяет и не хранит электронные версии произведений, а лишь предоставляет доступ к создаваемому пользователями каталогу ссылок на торрент-файлы, которые содержат только списки хеш-сумм

[Профиль] [ЛС]
Показать сообщения:    
Ответить на тему

Текущее время: Сегодня 05:31

Часовой пояс: GMT + 4



Вы не можете начинать темы
Вы не можете отвечать на сообщения
Вы не можете редактировать свои сообщения
Вы не можете удалять свои сообщения
Вы не можете голосовать в опросах
Вы не можете прикреплять файлы к сообщениям
Вы не можете скачивать файлы