Мужская парикмахерская Ёсино / Yoshino's Barber Shop (Наоко Огигами / Naoko Ogigami) [2004, Япония, Лирическая Комедия, DVDRip] VO (Родин Кирилл) + Sub Rus

Ответить на тему
 
Автор Сообщение

user ®

Стаж: 11 лет

Сообщений: 15151

Пост Пост: #1 от 22-Сен-2013 14:35

[Цитировать]

Мужская парикмахерская Ёсино / Yoshino's Barber Shop
Страна: Япония
Жанр: Лирическая Комедия
Год выпуска: 2004
Продолжительность: 01:36:51
Перевод: Одноголосый закадровый Родин Кирилл
Cубтитры: русские ( Kotobastia-Yaguarundi)
Режиссер: Наоко Огигами/Naoko Ogigami
В ролях: Ёнэда Рё - Кэйта,
Мотаи Масако - парикмахер Ёсико, мать Кэйты,
Асано Кадзуюки - отец Кэйты,
Окава Сёта - Ядзи,
Исида Хоси - Ёскэ Сакагами,
Окамото Нацуки - Мао Уэсуги,
Сакураи Сэнри - дедушка Микава,
Мурамацу Рё, Миао Синоскэ, Морисита Ёсиюки,
Такума Сэйко, Мура Масаки, Ёси Синъити и др.
Описание: Как обычно, добрая пересмешница Наоко Огигами любовно иронизирует над своими согражданами - и над всеми нами. В крохотном провинциальном предгорном японском городке Каминоэ все мальчики школьного возраста вот уже более ста лет в буквальном смысле слова стригутся под одну гребенку: все носят затейливую стрижку под названием "Ёсино", за что насмешники из соседних городов прозвали их "грибоголовыми". Раз в год, на день Богини Горы, мальчики, подстриженные под грибок, в белых облачениях, сильно напоминающих, с одной стороны, одеяние христианского духовенства, а с другой - парикмахерскую пелерину, поют "Аллилуйю" из оратории Генделя "Мессия", адресуясь к ревнивой Богине Горы, люто ненавидящей всех женщин и признающей только мужские молитвы. Взамен богиня должна избавить город от засухи и наводнений. Откуда взялся этот обычай, никто в городке уже толком не помнит; некоторые вспоминают о христианском миссионере Ксавьере, другие - о подручном Богини Горы, красноносом шалуне Тэнгу, который при случае поворовывает непослушных детей... На защите городских устоев и традиций стоит местный парикмахер - тетушка Ёсико, женщина несгибаемых принципов и недюжинной воли. И все в городе настолько привыкли к такому положению дел, что никому и в голову не приходит задаться вопросом, почему все мальчики должны носить одинаковые прически и почему синтоистскую богиню следует ублажать христианским гимном. Но тут - о, это вечное "но тут!" - в город приезжает из столичного Токио новый мальчик - с совсем другой, стильной, "кавайной" стрижкой. Все девчонки моментально теряют голову, а мальчишки сначала было набычиваются, но любопытство, как известно, не только кошку сгубило
© Yaguarundi
Сэмпл: http://yadi.sk/d/zIO9abAS9fbzV
Качество видео: DVDRip
Формат видео: AVI
Видео: MPEG-4 Visual, 1 878 Kbps, 720x384, 23.976 fpsm , 1.85:1
Аудио: MP3, 44.1 KHz, 192 Kbps, Joint stereo
Формат субтитров: Внешние SRT
Доп. информация о субтитрах: Текст песни

MediaInfo

General
Complete name : H:\Music Lossless\Yoshino's Barber Shop\Yoshino's Barber Shop.avi
Format : AVI
Format/Info : Audio Video Interleave
File size : 1.41 GiB
Duration : 1h 36mn
Overall bit rate : 2 079 Kbps
Writing application : VirtualDubMod 1.5.10.2 (build 2540/release)
Writing library : VirtualDubMod build 2540/release
Video
ID : 0
Format : MPEG-4 Visual
Format profile : Advanced Simple@L5
Format settings, BVOP : 1
Format settings, QPel : No
Format settings, GMC : No warppoints
Format settings, Matrix : Default (MPEG)
Codec ID : XVID
Codec ID/Hint : XviD
Duration : 1h 36mn
Bit rate : 1 878 Kbps
Width : 720 pixels
Height : 384 pixels
Display aspect ratio : 1.85:1
Frame rate : 23.976 fps
Color space : YUV
Chroma subsampling : 4:2:0
Bit depth : 8 bits
Scan type : Progressive
Compression mode : Lossy
Bits/(Pixel*Frame) : 0.283
Stream size : 1.27 GiB (90%)
Writing library : XviD 1.2.0.dev47 (UTC 2006-11-01)
Audio
ID : 1
Format : MPEG Audio
Format version : Version 1
Format profile : Layer 3
Mode : Joint stereo
Mode extension : MS Stereo
Codec ID : 55
Codec ID/Hint : MP3
Duration : 1h 36mn
Bit rate mode : Constant
Bit rate : 192 Kbps
Channel(s) : 2 channels
Sampling rate : 44.1 KHz
Compression mode : Lossy
Stream size : 133 MiB (9%)
Alignment : Aligned on interleaves
Interleave, duration : 42 ms (1.00 video frame)
Interleave, preload duration : 522 ms

Скриншот c названием фильма

Скриншоты





Скачать

Скачать торрент! Мужская парикмахерская Ёсино / Yoshino's Barber Shop (Наоко Огигами / Naoko Ogigami) [2004, Япония, Лирическая Комедия, DVDRip] VO (Родин Кирилл) + Sub Rus

Как скачивать? · Что такое торрент? · Рейтинг и ограничения

Сайт не распространяет и не хранит электронные версии произведений, а лишь предоставляет доступ к создаваемому пользователями каталогу ссылок на торрент-файлы, которые содержат только списки хеш-сумм

[Профиль] [ЛС]
Показать сообщения:    
Ответить на тему

Текущее время: Сегодня 17:40

Часовой пояс: GMT + 4



Вы не можете начинать темы
Вы не можете отвечать на сообщения
Вы не можете редактировать свои сообщения
Вы не можете удалять свои сообщения
Вы не можете голосовать в опросах
Вы не можете прикреплять файлы к сообщениям
Вы не можете скачивать файлы