Селеста и Джесси навеки / Celeste & Jesse Forever (Ли Толанд Кригер / Lee Toland Krieger) [2012, США, романтическая комедия, BDRip 720p] DVO (студия Elrom) + Original (Eng) + Subs (Eng)

Ответить на тему
 
Автор Сообщение

user ®

Стаж: 7 лет 7 месяцев

Сообщений: 20008

Пост Пост: #1 от 22-Сен-2013 14:35

[Цитировать]

Селеста и Джесси навеки / Celeste & Jesse Forever

-
-Страна: США
Студия: Envision Media Arts, Palm-Star Entertainment, Team Todd
Жанр: романтическая комедия
Год выпуска: 2012
Продолжительность: 01:32:16--Перевод: Профессиональный (двухголосый закадровый) студия Elrom
Cубтитры: английские (full, SDH)
Оригинальная аудиодорожка: английский--Режиссер: Ли Толанд Кригер / Lee Toland Krieger
В ролях: Рашида Джонс, Энди Сэмберг, Эри Грейнор, Эрик Кристиан Олсен, Роб Хюбел, Элайджа Вуд, Шира Лазар, Уилл МакКормак, Кейт Кригер--Описание: Эта картина рассказывает о паре молодых, но уже бывших супругов Селесте и Джесси, которые после развода продолжают жить вместе и пытаются сохранить дружеские отношения, встречаясь с другими.--imdb | kinopoisk | Сэмпл--Тип релиза: BDRip 720p [Celeste & Jesse Forever 2012 720p BluRay x264-EbP]
Контейнер: MKV
Видео: MPEG-4 AVC / 4132 kbps / 1280x534 / 23,976 fps / 2,40:1 / High Profile 4.1
Аудио 1: AC3 / 2.0 / 48 kHz / 192 kbps / 16 bits |DVO|
Аудио 2: AC3 / 5.1 / 48 kHz / 640 kbps / 16 bits |original|
Формат субтитров: softsub [SRT]

MediaInfo

Общее
Уникальный идентификатор : 182693308105780139484537314877554846928 (0x897173868FF63B5E9F497569D7206CD0)
Полное имя : G:\HD\Селеста и Джесси навеки.2012.BDRip.(720p).mkv
Формат : Matroska
Версия формата : Version 2
Размер файла : 3,26 Гбайт
Продолжительность : 1 ч. 32 м.
Общий поток : 5065 Кбит/сек
Дата кодирования : UTC 2013-09-21 11:10:02
Программа кодирования : mkvmerge v5.8.0 ('No Sleep / Pillow') built on Sep 2 2012 15:37:04
Библиотека кодирования : libebml v1.2.3 + libmatroska v1.3.0
Attachment : Yes
Видео
Идентификатор : 1
Формат : AVC
Формат/Информация : Advanced Video Codec
Профиль формата : High@L4.1
Параметр CABAC формата : Да
Параметр ReFrames формата : 12 кадров
Идентификатор кодека : V_MPEG4/ISO/AVC
Продолжительность : 1 ч. 32 м.
Битрейт : 4132 Кбит/сек
Ширина : 1280 пикселей
Высота : 534 пикселя
Соотношение сторон : 2,40:1
Режим частоты кадров : Постоянный
Частота кадров : 23,976 кадра/сек
Цветовое пространство : YUV
Субдискретизация насыщенности : 4:2:0
Битовая глубина : 8 бит
Тип развёртки : Прогрессивная
Бит/(Пиксели*Кадры) : 0.252
Размер потока : 2,66 Гбайт (82%)
Заголовок : Celeste & Jesse Forever 2012 720p BluRay x264-EbP
Библиотека кодирования : x264 core 129 r2245 bc13772
Настройки программы : cabac=1 / ref=12 / deblock=1:-3:-3 / analyse=0x3:0x113 / me=tesa / subme=10 / psy=1 / psy_rd=1.05:0.00 / mixed_ref=1 / me_range=16 / chroma_me=1 / trellis=2 / 8x8dct=1 / cqm=0 / deadzone=21,11 / fast_pskip=0 / chroma_qp_offset=-2 / threads=12 / lookahead_threads=2 / sliced_threads=0 / nr=0 / decimate=0 / interlaced=0 / bluray_compat=0 / constrained_intra=0 / bframes=8 / b_pyramid=2 / b_adapt=2 / b_bias=0 / direct=3 / weightb=1 / open_gop=0 / weightp=2 / keyint=250 / keyint_min=23 / scenecut=40 / intra_refresh=0 / rc=crf / mbtree=0 / crf=15.0 / qcomp=0.50 / qpmin=0 / qpmax=69 / qpstep=4 / ip_ratio=1.40 / pb_ratio=1.30 / aq=1:0.70
Язык : English
Default : Да
Forced : Нет
Коэффициенты матрицы : BT.709
Аудио #1
Идентификатор : 2
Формат : AC-3
Формат/Информация : Audio Coding 3
Расширение режима : CM (complete main)
Параметр Endianness формата : Big
Идентификатор кодека : A_AC3
Продолжительность : 1 ч. 32 м.
Вид битрейта : Постоянный
Битрейт : 192 Кбит/сек
Каналы : 2 канала
Расположение каналов : Front: L R
Частота : 48,0 КГц
Битовая глубина : 16 бит
Метод сжатия : С потерями
Размер потока : 127 Мбайт (4%)
Заголовок : студия Elrom
Язык : Russian
Default : Да
Forced : Нет
Аудио #2
Идентификатор : 3
Формат : AC-3
Формат/Информация : Audio Coding 3
Расширение режима : CM (complete main)
Параметр Endianness формата : Big
Идентификатор кодека : A_AC3
Продолжительность : 1 ч. 32 м.
Вид битрейта : Постоянный
Битрейт : 640 Кбит/сек
Каналы : 6 каналов
Расположение каналов : Front: L C R, Side: L R, LFE
Частота : 48,0 КГц
Битовая глубина : 16 бит
Метод сжатия : С потерями
Размер потока : 422 Мбайт (13%)
Язык : English
Default : Нет
Forced : Нет
Текст #1
Идентификатор : 4
Формат : UTF-8
Идентификатор кодека : S_TEXT/UTF8
Идентификатор кодека/Информация : UTF-8 Plain Text
Заголовок : full
Язык : English
Default : Нет
Forced : Нет
Текст #2
Идентификатор : 5
Формат : UTF-8
Идентификатор кодека : S_TEXT/UTF8
Идентификатор кодека/Информация : UTF-8 Plain Text
Заголовок : SDH
Язык : English
Default : Нет
Forced : Нет
Меню
00:00:00.000 : :Chapter 01
00:04:56.587 : :Chapter 02
00:10:57.907 : :Chapter 03
00:18:40.452 : :Chapter 04
00:25:12.761 : :Chapter 05
00:31:22.046 : :Chapter 06
00:37:13.022 : :Chapter 07
00:41:56.138 : :Chapter 08
00:46:29.745 : :Chapter 09
00:50:53.300 : :Chapter 10
00:54:40.652 : :Chapter 11
01:00:53.149 : :Chapter 12
01:05:37.892 : :Chapter 13
01:12:07.281 : :Chapter 14
01:19:07.242 : :Chapter 15
01:24:07.709 : :Chapter 16

Скриншоты


Скачать

Скачать торрент!

Как скачивать? · Что такое торрент? · Рейтинг и ограничения

Сайт не распространяет и не хранит электронные версии произведений, а лишь предоставляет доступ к создаваемому пользователями каталогу ссылок на торрент-файлы, которые содержат только списки хеш-сумм

[Профиль] [ЛС]
Показать сообщения:    
Ответить на тему

Текущее время: Сегодня 22:38

Часовой пояс: GMT + 4



Вы не можете начинать темы
Вы не можете отвечать на сообщения
Вы не можете редактировать свои сообщения
Вы не можете удалять свои сообщения
Вы не можете голосовать в опросах
Вы не можете прикреплять файлы к сообщениям
Вы не можете скачивать файлы