Связи нет / Disconnect (Генри Алекс Рубин / Henry Alex Rubin) [2012, США, Триллер, драма, BDRip 1080p] DVO (Zelesk и Анна Завразина) + VO (VANO) + Sub (Rus, Eng, Esp) + Original Eng

Ответить на тему
 
Автор Сообщение

user ®

Стаж: 7 лет 7 месяцев

Сообщений: 20008

Пост Пост: #1 от 22-Сен-2013 14:35

[Цитировать]

Связи нет / Disconnect
Страна: США
Студия: Liddell Entertainment, Wonderful Films
Жанр: Триллер, драма
Год выпуска: 2012
Продолжительность: 01:55:39
Перевод: Любительский (двухголосый закадровый) Zelesk и Анна Завразина
Перевод 2: Одноголосый закадровый VANO
Cубтитры: русские, английские, английские с комментариями, испанские
Оригинальная аудиодорожка: английский
Режиссер: Генри Алекс Рубин / Henry Alex Rubin
В ролях: Джейсон Бейтман, Хоуп Дэвис, Фрэнк Грилло, Микаэл Нюквист, Пола Пэттон, Андреа Райзборо, Александр Скарсгард, Макс Тириот, Колин Форд, Джона Бобо
Описание: Рассказ идет про группу современных людей, которые пытаются наладить взаимоотношения с окружающими на фоне «проводного» мира современных технологий. Это самая большая загадка человечества — почему новейшие технологии, призванные объединять людей, на самом деле создают огромную пропасть между ними.
Сэмпл: http://www.sendspace.com/file/5y72ve
Тип релиза: BDRip 1080p
Контейнер: MKV
Видео: Advanced Video Codec, 1920x1036, V_MPEG4/ISO/AVC, 1.85:1, 12.3 Mbps, 23.976 fps
Аудио: Русский, AC-3, 48.0 KHz, 448 Kbps, 6 channels (Front: L C R, Side: L R, LFE) - zelesk и Анна Завразина
Аудио 2: Русский, AC-3, 48.0 KHz, 448 Kbps, 6 channels (Front: L C R, Side: L R, LFE) - VANO
Аудио 3: English, DTS, 48.0 KHz, 1509 Kbps, 6 channels (Front: L C R, Side: L R, LFE)
Аудио 4: English, AC-3, 48.0 KHz, 224 Kbps, 2 channels (L, R) - комментарии режиссера
Формат субтитров: softsub (SRT)

MediaInfo

Disconnect.2012.1080p.mkv
General
Unique ID : 249509538752121690289332811761131011289 (0xBBB5CA099ED36A8890D649A1AB6D3CD9)
Complete name : Disconnect.2012.1080p.mkv
Format : Matroska
Format version : Version 4 / Version 2
File size : 12.3 GiB
Duration : 1h 55mn
Overall bit rate : 15.2 Mbps
Encoded date : UTC 2013-09-22 08:21:13
Writing application : mkvmerge v6.4.1 ('Omega Point') built on Sep 16 2013 22:05:10
Writing library : libebml v1.3.0 + libmatroska v1.4.1
Video #1
ID : 1
Format : AVC
Format/Info : Advanced Video Codec
Format profile : High@L4.1
Format settings, CABAC : Yes
Format settings, ReFrames : 4 frames
Codec ID : V_MPEG4/ISO/AVC
Duration : 1h 55mn
Bit rate : 12.3 Mbps
Width : 1 920 pixels
Height : 1 036 pixels
Display aspect ratio : 1.85:1
Frame rate mode : Constant
Frame rate : 23.976 fps
Color space : YUV
Chroma subsampling : 4:2:0
Bit depth : 8 bits
Scan type : Progressive
Bits/(Pixel*Frame) : 0.257
Stream size : 9.91 GiB (81%)
Writing library : x264 core 135 r2345 f0c1c53
Encoding settings : cabac=1 / ref=4 / deblock=1:-3:-3 / analyse=0x3:0x113 / me=umh / subme=10 / psy=1 / psy_rd=0.90:0.00 / mixed_ref=1 / me_range=24 / chroma_me=1 / trellis=2 / 8x8dct=1 / cqm=0 / deadzone=21,11 / fast_pskip=0 / chroma_qp_offset=-2 / threads=12 / lookahead_threads=2 / sliced_threads=0 / nr=0 / decimate=0 / interlaced=0 / bluray_compat=0 / constrained_intra=0 / bframes=8 / b_pyramid=2 / b_adapt=2 / b_bias=0 / direct=3 / weightb=1 / open_gop=0 / weightp=2 / keyint=250 / keyint_min=23 / scenecut=40 / intra_refresh=0 / rc=crf / mbtree=0 / crf=16.5 / qcomp=0.55 / qpmin=0 / qpmax=69 / qpstep=4 / ip_ratio=1.30 / pb_ratio=1.30 / aq=1:0.90 / zones=160606,166398,crf=30
Language : English
Default : Yes
Forced : No
Audio #2
ID : 2
Format : AC-3
Format/Info : Audio Coding 3
Mode extension : CM (complete main)
Format settings, Endianness : Big
Codec ID : A_AC3
Duration : 1h 55mn
Bit rate mode : Constant
Bit rate : 448 Kbps
Channel(s) : 6 channels
Channel positions : Front: L C R, Side: L R, LFE
Sampling rate : 48.0 KHz
Bit depth : 16 bits
Compression mode : Lossy
Stream size : 371 MiB (3%)
Title : DVO [Zelesk & Anna Zavrazina]
Language : Russian
Default : Yes
Forced : No
Audio #3
ID : 3
Format : AC-3
Format/Info : Audio Coding 3
Mode extension : CM (complete main)
Format settings, Endianness : Big
Codec ID : A_AC3
Duration : 1h 55mn
Bit rate mode : Constant
Bit rate : 448 Kbps
Channel(s) : 6 channels
Channel positions : Front: L C R, Side: L R, LFE
Sampling rate : 48.0 KHz
Bit depth : 16 bits
Compression mode : Lossy
Stream size : 371 MiB (3%)
Title : VO [VANO]
Language : Russian
Default : No
Forced : No
Audio #4
ID : 4
Format : DTS
Format/Info : Digital Theater Systems
Mode : 16
Format settings, Endianness : Big
Codec ID : A_DTS
Duration : 1h 55mn
Bit rate mode : Constant
Bit rate : 1 509 Kbps
Channel(s) : 6 channels
Channel positions : Front: L C R, Side: L R, LFE
Sampling rate : 48.0 KHz
Bit depth : 24 bits
Compression mode : Lossy
Stream size : 1.22 GiB (10%)
Language : English
Default : No
Forced : No
Audio #5
ID : 5
Format : AC-3
Format/Info : Audio Coding 3
Format profile : Dolby Digital
Mode extension : CM (complete main)
Format settings, Endianness : Big
Codec ID : A_AC3
Duration : 1h 55mn
Bit rate mode : Constant
Bit rate : 224 Kbps
Channel(s) : 2 channels
Channel positions : Front: L R
Sampling rate : 48.0 KHz
Bit depth : 16 bits
Compression mode : Lossy
Stream size : 185 MiB (1%)
Title : Commentary with Director Henry-Alex Rubin
Language : English
Default : No
Forced : No
Text #6
ID : 6
Format : UTF-8
Codec ID : S_TEXT/UTF8
Codec ID/Info : UTF-8 Plain Text
Title : Zelesk
Language : Russian
Default : Yes
Forced : No
Text #7
ID : 7
Format : UTF-8
Codec ID : S_TEXT/UTF8
Codec ID/Info : UTF-8 Plain Text
Language : English
Default : No
Forced : No
Text #8
ID : 8
Format : UTF-8
Codec ID : S_TEXT/UTF8
Codec ID/Info : UTF-8 Plain Text
Title : Commentary
Language : English
Default : No
Forced : No
Text #9
ID : 9
Format : UTF-8
Codec ID : S_TEXT/UTF8
Codec ID/Info : UTF-8 Plain Text
Language : Spanish
Default : No
Forced : No
Menu
00:00:00.000 : en:00:00:00.000
00:07:07.344 : en:00:07:07.344
00:13:45.158 : en:00:13:45.158
00:19:52.316 : en:00:19:52.316
00:24:54.868 : en:00:24:54.868
00:29:57.254 : en:00:29:57.254
00:37:49.267 : en:00:37:49.267
00:45:17.465 : en:00:45:17.465
00:51:18.450 : en:00:51:18.450
00:58:34.010 : en:00:58:34.010
01:04:35.622 : en:01:04:35.622
01:10:56.961 : en:01:10:56.961
01:17:00.199 : en:01:17:00.199
01:22:32.948 : en:01:22:32.948
01:31:25.438 : en:01:31:25.438
01:42:54.001 : en:01:42:54.001

Скриншоты

Скачать

Скачать торрент!

Как скачивать? · Что такое торрент? · Рейтинг и ограничения

Сайт не распространяет и не хранит электронные версии произведений, а лишь предоставляет доступ к создаваемому пользователями каталогу ссылок на торрент-файлы, которые содержат только списки хеш-сумм

[Профиль] [ЛС]
Показать сообщения:    
Ответить на тему

Текущее время: Сегодня 06:09

Часовой пояс: GMT + 4



Вы не можете начинать темы
Вы не можете отвечать на сообщения
Вы не можете редактировать свои сообщения
Вы не можете удалять свои сообщения
Вы не можете голосовать в опросах
Вы не можете прикреплять файлы к сообщениям
Вы не можете скачивать файлы